<?xml version="1.0" standalone="no"?>
<!DOCTYPE svg PUBLIC "-//W3C//DTD SVG 1.1//EN" "http://www.w3.org/Graphics/SVG/1.1/DTD/svg11.dtd" >
<svg xmlns="http://www.w3.org/2000/svg">
<metadata>Generated by IcoMoon</metadata>
<defs>
<font id="Picktan Capital -icons" horiz-adv-x="1024">
<font-face units-per-em="1024" ascent="960" descent="-64" />
<missing-glyph horiz-adv-x="1024" />
<glyph unicode="&#x20;" horiz-adv-x="512" d="" />
<glyph unicode="&#xe900;" glyph-name="agile-cloud" d="M256 627.2h-153.6c-15.36 0-25.6 10.24-25.6 25.6v153.6c0 15.36 10.24 25.6 25.6 25.6s25.6-10.24 25.6-25.6v-128h128c15.36 0 25.6-10.24 25.6-25.6s-10.24-25.6-25.6-25.6zM819.2-38.4c-7.68 0-12.8 2.56-17.92 7.68-10.24 10.24-10.24 25.6 0 35.84l84.48 84.48-84.48 84.48c-10.24 10.24-10.24 25.6 0 35.84s25.6 10.24 35.84 0l102.4-102.4c10.24-10.24 10.24-25.6 0-35.84l-102.4-102.4c-5.12-5.12-10.24-7.68-17.92-7.68zM921.6 64h-409.6c-217.6 0-404.48 163.84-435.2 378.88-2.56 12.8 7.68 28.16 23.040 28.16 12.8 2.56 28.16-7.68 28.16-23.040 25.6-186.88 192-332.8 384-332.8h409.6c15.36 0 25.6-10.24 25.6-25.6s-10.24-25.6-25.6-25.6zM650.24 345.6h-227.84c-30.72 0-58.88 12.8-81.92 33.28-20.48 20.48-33.28 51.2-33.28 81.92s12.8 58.88 33.28 79.36c17.92 17.92 38.4 28.16 61.44 30.72 10.24 25.6 28.16 46.080 51.2 61.44 15.36 7.68 30.72 15.36 46.080 17.92 17.92 2.56 33.28 2.56 51.2 0s33.28-10.24 46.080-17.92c15.36-10.24 25.6-20.48 35.84-33.28s15.36-28.16 20.48-46.080c2.56-5.12 2.56-12.8 2.56-17.92 20.48-2.56 40.96-12.8 56.32-28.16 17.92-17.92 25.6-40.96 25.6-66.56s-10.24-48.64-25.6-66.56c-12.8-17.92-35.84-28.16-61.44-28.16zM527.36 601.6c-5.12 0-10.24 0-15.36-2.56-10.24-2.56-20.48-5.12-30.72-10.24-17.92-10.24-30.72-28.16-33.28-46.080-2.56-12.8-12.8-20.48-25.6-20.48-17.92 0-33.28-7.68-46.080-17.92-12.8-12.8-17.92-28.16-17.92-43.52 0-17.92 7.68-33.28 17.92-43.52 12.8-12.8 28.16-17.92 46.080-17.92h227.84c10.24 0 20.48 5.12 28.16 12.8s12.8 20.48 12.8 30.72c0 10.24-5.12 23.040-12.8 30.72s-17.92 12.8-28.16 12.8h-17.92c-7.68 0-15.36 2.56-20.48 10.24-5.12 5.12-7.68 12.8-5.12 20.48 2.56 10.24 2.56 17.92 0 28.16s-5.12 17.92-12.8 25.6c-5.12 7.68-12.8 15.36-23.040 20.48-7.68 5.12-17.92 10.24-30.72 10.24-2.56 0-7.68 0-12.8 0zM901.12 345.6c-2.56 0-5.12 0-7.68 0-12.8 5.12-20.48 17.92-15.36 33.28 12.8 38.4 17.92 79.36 17.92 120.32 0 212.48-171.52 384-384 384-156.16 0-296.96-94.72-355.84-240.64-5.12-12.8-20.48-20.48-33.28-15.36s-20.48 20.48-15.36 33.28c66.56 166.4 225.28 273.92 404.48 273.92 240.64 0 435.2-194.56 435.2-435.2 0-46.080-7.68-92.16-20.48-135.68-5.12-10.24-15.36-17.92-25.6-17.92z" />
<glyph unicode="&#xe901;" glyph-name="api" d="M742.4 12.8c-33.28 0-58.88 20.48-66.56 53.76 0 2.56-2.56 5.12-5.12 7.68s-5.12 5.12-7.68 5.12c-2.56 0-5.12 2.56-7.68 2.56s-5.12 0-7.68-2.56c-28.16-17.92-61.44-12.8-84.48 10.24s-28.16 56.32-10.24 84.48c2.56 2.56 2.56 5.12 2.56 7.68s0 5.12-2.56 7.68c0 2.56-2.56 5.12-5.12 7.68s-5.12 2.56-7.68 5.12c-33.28 7.68-53.76 33.28-53.76 66.56s20.48 58.88 53.76 66.56c2.56 0 5.12 2.56 7.68 5.12s5.12 5.12 5.12 7.68c0 2.56 2.56 5.12 2.56 7.68s0 5.12-2.56 7.68c-17.92 28.16-12.8 61.44 10.24 84.48s56.32 28.16 84.48 10.24c5.12-2.56 10.24-2.56 17.92-2.56 5.12 2.56 10.24 7.68 10.24 12.8 7.68 30.72 35.84 53.76 66.56 53.76s58.88-20.48 66.56-53.76c0-2.56 2.56-5.12 5.12-7.68s5.12-5.12 7.68-5.12c2.56 0 5.12-2.56 7.68-2.56s5.12 0 7.68 2.56c28.16 17.92 61.44 12.8 84.48-10.24s28.16-56.32 10.24-84.48c-2.56-2.56-2.56-5.12-2.56-7.68s0-5.12 2.56-7.68c0-2.56 2.56-5.12 5.12-7.68s5.12-2.56 7.68-5.12c30.72-7.68 53.76-35.84 53.76-66.56s-20.48-58.88-53.76-66.56c-2.56 0-5.12-2.56-7.68-5.12s-5.12-5.12-5.12-7.68c0-2.56-2.56-5.12-2.56-7.68s0-5.12 2.56-7.68c17.92-28.16 12.8-61.44-10.24-84.48s-56.32-28.16-84.48-10.24c-2.56 2.56-5.12 2.56-7.68 2.56s-5.12 0-7.68-2.56c-2.56 0-5.12-2.56-7.68-5.12s-2.56-5.12-5.12-7.68c-7.68-30.72-33.28-51.2-66.56-51.2zM655.36 130.56c10.24 0 17.92-2.56 25.6-5.12 10.24-5.12 20.48-10.24 25.6-17.92 7.68-7.68 12.8-17.92 15.36-28.16 5.12-15.36 17.92-15.36 20.48-15.36s15.36 0 17.92 15.36c2.56 10.24 7.68 20.48 15.36 28.16s15.36 15.36 25.6 17.92c10.24 5.12 20.48 5.12 33.28 5.12 10.24 0 20.48-5.12 30.72-10.24 10.24-7.68 20.48 0 23.040 2.56s10.24 10.24 2.56 23.040c-5.12 10.24-10.24 20.48-10.24 30.72s0 23.040 5.12 30.72c5.12 10.24 10.24 20.48 17.92 25.6 7.68 7.68 17.92 12.8 28.16 15.36 15.36 5.12 15.36 17.92 15.36 20.48s0 15.36-15.36 17.92c-10.24 2.56-20.48 7.68-28.16 15.36s-15.36 15.36-17.92 25.6c-5.12 10.24-5.12 20.48-5.12 33.28 0 10.24 5.12 20.48 10.24 30.72 7.68 12.8 0 20.48-2.56 23.040s-10.24 10.24-23.040 2.56c-10.24-5.12-20.48-10.24-30.72-10.24s-23.040 0-33.28 5.12c-10.24 5.12-20.48 10.24-25.6 17.92-7.68 7.68-12.8 17.92-15.36 28.16-2.56 15.36-15.36 15.36-17.92 15.36s-15.36 0-17.92-15.36v0c-5.12-23.040-20.48-38.4-40.96-48.64-20.48-7.68-43.52-7.68-64 5.12-12.8 7.68-20.48 0-23.040-2.56s-10.24-10.24-2.56-23.040c5.12-10.24 10.24-20.48 10.24-30.72s0-23.040-5.12-30.72c-5.12-10.24-10.24-20.48-17.92-25.6-7.68-7.68-17.92-12.8-28.16-15.36-15.36-2.56-15.36-15.36-15.36-17.92s0-15.36 15.36-17.92c10.24-2.56 20.48-7.68 28.16-15.36s15.36-15.36 17.92-25.6c5.12-10.24 5.12-20.48 5.12-33.28 0-10.24-5.12-20.48-10.24-30.72-7.68-12.8 0-20.48 2.56-23.040s10.24-10.24 23.040-2.56c10.24 5.12 20.48 10.24 30.72 10.24 2.56 0 5.12 0 5.12 0zM698.88 465.92v0 0zM435.2 140.8h-332.8c-43.52 0-76.8 33.28-76.8 76.8v588.8c0 43.52 33.28 76.8 76.8 76.8h691.2c43.52 0 76.8-33.28 76.8-76.8v-230.4c0-15.36-10.24-25.6-25.6-25.6s-25.6 10.24-25.6 25.6v230.4c0 15.36-10.24 25.6-25.6 25.6h-691.2c-15.36 0-25.6-10.24-25.6-25.6v-588.8c0-15.36 10.24-25.6 25.6-25.6h332.8c15.36 0 25.6-10.24 25.6-25.6s-10.24-25.6-25.6-25.6zM844.8 627.2h-793.6c-15.36 0-25.6 10.24-25.6 25.6s10.24 25.6 25.6 25.6h793.6c15.36 0 25.6-10.24 25.6-25.6s-10.24-25.6-25.6-25.6zM179.2 755.2c0-14.138-11.462-25.6-25.6-25.6s-25.6 11.462-25.6 25.6c0 14.138 11.462 25.6 25.6 25.6s25.6-11.462 25.6-25.6zM281.6 755.2c0-14.138-11.462-25.6-25.6-25.6s-25.6 11.462-25.6 25.6c0 14.138 11.462 25.6 25.6 25.6s25.6-11.462 25.6-25.6zM384 755.2c0-14.138-11.462-25.6-25.6-25.6s-25.6 11.462-25.6 25.6c0 14.138 11.462 25.6 25.6 25.6s25.6-11.462 25.6-25.6zM742.4 192c-43.52 0-76.8 33.28-76.8 76.8s33.28 76.8 76.8 76.8 76.8-33.28 76.8-76.8-33.28-76.8-76.8-76.8zM742.4 294.4c-15.36 0-25.6-10.24-25.6-25.6s10.24-25.6 25.6-25.6 25.6 10.24 25.6 25.6-10.24 25.6-25.6 25.6z" />
<glyph unicode="&#xe902;" glyph-name="avatar" d="M512 345.6c-99.84 0-179.2 79.36-179.2 179.2s79.36 179.2 179.2 179.2c99.84 0 179.2-79.36 179.2-179.2s-79.36-179.2-179.2-179.2zM512 652.8c-71.68 0-128-56.32-128-128s56.32-128 128-128 128 56.32 128 128-56.32 128-128 128zM791.040 64c-10.24 0-17.92 5.12-23.040 15.36-46.080 99.84-145.92 163.84-256 163.84s-209.92-64-256-163.84c-5.12-12.8-20.48-17.92-33.28-12.8s-17.92 20.48-12.8 33.28c53.76 117.76 171.52 194.56 302.080 194.56s248.32-76.8 302.080-194.56c5.12-12.8 0-28.16-12.8-33.28-2.56-2.56-5.12-2.56-10.24-2.56zM512-38.4c-268.8 0-486.4 217.6-486.4 486.4s217.6 486.4 486.4 486.4 486.4-217.6 486.4-486.4-217.6-486.4-486.4-486.4zM512 883.2c-240.64 0-435.2-194.56-435.2-435.2s194.56-435.2 435.2-435.2 435.2 194.56 435.2 435.2-194.56 435.2-435.2 435.2z" />
<glyph unicode="&#xe903;" glyph-name="bar-line-chart-cloud" d="M102.4 473.6c-7.68 0-12.8 2.56-17.92 7.68-10.24 10.24-10.24 25.6 0 35.84l204.8 204.8c5.12 7.68 15.36 10.24 23.040 7.68l192-48.64 194.56 194.56c7.68 7.68 20.48 10.24 30.72 5.12l204.8-102.4c12.8-5.12 17.92-20.48 10.24-33.28-5.12-12.8-20.48-17.92-33.28-10.24l-189.44 94.72-192-192c-5.12-5.12-15.36-7.68-23.040-7.68l-192 48.64-194.56-194.56c-5.12-7.68-10.24-10.24-17.92-10.24zM102.4 12.8c-15.36 0-25.6 10.24-25.6 25.6v307.2c0 15.36 10.24 25.6 25.6 25.6s25.6-10.24 25.6-25.6v-307.2c0-15.36-10.24-25.6-25.6-25.6zM307.2 12.8c-15.36 0-25.6 10.24-25.6 25.6v460.8c0 15.36 10.24 25.6 25.6 25.6s25.6-10.24 25.6-25.6v-460.8c0-15.36-10.24-25.6-25.6-25.6zM512 320c-15.36 0-25.6 10.24-25.6 25.6v153.6c0 15.36 10.24 25.6 25.6 25.6s25.6-10.24 25.6-25.6v-153.6c0-15.36-10.24-25.6-25.6-25.6zM716.8 422.4c-15.36 0-25.6 10.24-25.6 25.6v204.8c0 15.36 10.24 25.6 25.6 25.6s25.6-10.24 25.6-25.6v-204.8c0-15.36-10.24-25.6-25.6-25.6zM921.6 294.4c-15.36 0-25.6 10.24-25.6 25.6v281.6c0 15.36 10.24 25.6 25.6 25.6s25.6-10.24 25.6-25.6v-281.6c0-15.36-10.24-25.6-25.6-25.6zM849.92 12.8h-243.2c-66.56 0-120.32 51.2-120.32 112.64 0 56.32 43.52 104.96 102.4 112.64 23.040 56.32 89.6 89.6 156.16 79.36 38.4-7.68 71.68-28.16 92.16-58.88 12.8-17.92 17.92-38.4 20.48-58.88 48.64-2.56 89.6-43.52 89.6-94.72 0-48.64-43.52-92.16-97.28-92.16zM719.36 268.8c-40.96 0-76.8-25.6-87.040-58.88-2.56-12.8-12.8-20.48-25.6-20.48-38.4 0-69.12-28.16-69.12-61.44s30.72-61.44 69.12-61.44h243.2c25.6 0 46.080 20.48 46.080 43.52s-20.48 43.52-46.080 43.52h-20.48c-7.68 0-15.36 2.56-20.48 10.24-5.12 5.12-7.68 15.36-5.12 20.48 5.12 20.48-2.56 38.4-10.24 48.64-12.8 17.92-33.28 33.28-58.88 35.84-5.12 0-10.24 0-15.36 0z" />
<glyph unicode="&#xe904;" glyph-name="bar-line-chart" d="M102.4 473.6c-7.68 0-12.8 2.56-17.92 7.68-10.24 10.24-10.24 25.6 0 35.84l204.8 204.8c5.12 7.68 15.36 10.24 23.040 7.68l192-48.64 194.56 194.56c7.68 7.68 20.48 10.24 30.72 5.12l204.8-102.4c12.8-5.12 17.92-20.48 10.24-33.28-5.12-12.8-20.48-17.92-33.28-10.24l-189.44 94.72-192-192c-5.12-5.12-15.36-7.68-23.040-7.68l-192 48.64-194.56-194.56c-5.12-7.68-10.24-10.24-17.92-10.24zM102.4 12.8c-15.36 0-25.6 10.24-25.6 25.6v307.2c0 15.36 10.24 25.6 25.6 25.6s25.6-10.24 25.6-25.6v-307.2c0-15.36-10.24-25.6-25.6-25.6zM307.2 12.8c-15.36 0-25.6 10.24-25.6 25.6v460.8c0 15.36 10.24 25.6 25.6 25.6s25.6-10.24 25.6-25.6v-460.8c0-15.36-10.24-25.6-25.6-25.6zM512 12.8c-15.36 0-25.6 10.24-25.6 25.6v460.8c0 15.36 10.24 25.6 25.6 25.6s25.6-10.24 25.6-25.6v-460.8c0-15.36-10.24-25.6-25.6-25.6zM716.8 12.8c-15.36 0-25.6 10.24-25.6 25.6v614.4c0 15.36 10.24 25.6 25.6 25.6s25.6-10.24 25.6-25.6v-614.4c0-15.36-10.24-25.6-25.6-25.6zM921.6 12.8c-15.36 0-25.6 10.24-25.6 25.6v563.2c0 15.36 10.24 25.6 25.6 25.6s25.6-10.24 25.6-25.6v-563.2c0-15.36-10.24-25.6-25.6-25.6z" />
<glyph unicode="&#xe905;" glyph-name="blog" d="M998.4 89.6h-972.8c-15.36 0-25.6 10.24-25.6 25.6s10.24 25.6 25.6 25.6h972.8c15.36 0 25.6-10.24 25.6-25.6s-10.24-25.6-25.6-25.6zM665.6 601.6h-153.6c-15.36 0-25.6 10.24-25.6 25.6s10.24 25.6 25.6 25.6h153.6c15.36 0 25.6-10.24 25.6-25.6s-10.24-25.6-25.6-25.6zM358.4 601.6h-102.4c-15.36 0-25.6 10.24-25.6 25.6s10.24 25.6 25.6 25.6h102.4c15.36 0 25.6-10.24 25.6-25.6s-10.24-25.6-25.6-25.6zM742.4 499.2h-230.4c-15.36 0-25.6 10.24-25.6 25.6s10.24 25.6 25.6 25.6h230.4c15.36 0 25.6-10.24 25.6-25.6s-10.24-25.6-25.6-25.6zM358.4 499.2h-102.4c-15.36 0-25.6 10.24-25.6 25.6s10.24 25.6 25.6 25.6h102.4c15.36 0 25.6-10.24 25.6-25.6s-10.24-25.6-25.6-25.6zM614.4 396.8h-102.4c-15.36 0-25.6 10.24-25.6 25.6s10.24 25.6 25.6 25.6h102.4c15.36 0 25.6-10.24 25.6-25.6s-10.24-25.6-25.6-25.6zM870.4 192h-716.8c-43.52 0-76.8 33.28-76.8 76.8v460.8c0 43.52 33.28 76.8 76.8 76.8h716.8c43.52 0 76.8-33.28 76.8-76.8v-460.8c0-43.52-33.28-76.8-76.8-76.8zM153.6 755.2c-15.36 0-25.6-10.24-25.6-25.6v-460.8c0-15.36 10.24-25.6 25.6-25.6h716.8c15.36 0 25.6 10.24 25.6 25.6v460.8c0 15.36-10.24 25.6-25.6 25.6h-716.8z" />
<glyph unicode="&#xe906;" glyph-name="brochure" d="M179.2-38.4c-2.56 0-2.56 0-5.12 0s-7.68 2.56-10.24 5.12c-2.56 2.56-5.12 5.12-7.68 7.68 0 2.56-2.56 5.12-2.56 7.68s0 5.12 0 5.12v747.52c0 10.24 7.68 20.48 17.92 23.040l504.32 174.080c5.12 2.56 15.36 2.56 20.48-2.56 7.68-5.12 10.24-12.8 10.24-20.48v-148.48h138.24c15.36 0 25.6-10.24 25.6-25.6v-747.52c0-15.36-10.24-25.6-25.6-25.6h-665.6c0 0 0 0 0 0zM332.8 12.8h486.4v696.32h-110.080v-550.4c0-10.24-7.68-20.48-17.92-23.040l-358.4-122.88zM204.8 716.8v-693.76l453.12 156.16v693.76l-453.12-156.16z" />
<glyph unicode="&#xe907;" glyph-name="browser" d="M921.6 38.4h-819.2c-43.52 0-76.8 33.28-76.8 76.8v665.6c0 43.52 33.28 76.8 76.8 76.8h819.2c43.52 0 76.8-33.28 76.8-76.8v-665.6c0-43.52-33.28-76.8-76.8-76.8zM76.8 601.6v-486.4c0-15.36 10.24-25.6 25.6-25.6h819.2c15.36 0 25.6 10.24 25.6 25.6v486.4h-870.4zM76.8 652.8h870.4v128c0 15.36-10.24 25.6-25.6 25.6h-819.2c-15.36 0-25.6-10.24-25.6-25.6v-128zM179.2 729.6c0-14.138-11.462-25.6-25.6-25.6s-25.6 11.462-25.6 25.6c0 14.138 11.462 25.6 25.6 25.6s25.6-11.462 25.6-25.6zM281.6 729.6c0-14.138-11.462-25.6-25.6-25.6s-25.6 11.462-25.6 25.6c0 14.138 11.462 25.6 25.6 25.6s25.6-11.462 25.6-25.6zM384 729.6c0-14.138-11.462-25.6-25.6-25.6s-25.6 11.462-25.6 25.6c0 14.138 11.462 25.6 25.6 25.6s25.6-11.462 25.6-25.6z" />
<glyph unicode="&#xe908;" glyph-name="building" d="M819.2-38.4h-614.4c-15.36 0-25.6 10.24-25.6 25.6v870.4c0 20.48 7.68 40.96 23.040 53.76 12.8 15.36 33.28 23.040 53.76 23.040h512c20.48 0 40.96-7.68 53.76-23.040 15.36-12.8 23.040-33.28 23.040-53.76v-870.4c0-15.36-10.24-25.6-25.6-25.6zM230.4 12.8h563.2v844.8c0 7.68-2.56 12.8-7.68 17.92s-10.24 7.68-17.92 7.68h-512c-7.68 0-12.8-2.56-17.92-7.68s-7.68-10.24-7.68-17.92v-844.8zM563.2-38.4h-102.4c-15.36 0-25.6 10.24-25.6 25.6v145.92c0 10.24 2.56 17.92 10.24 23.040s15.36 10.24 23.040 10.24h84.48c10.24 0 17.92-2.56 23.040-10.24s12.8-15.36 12.8-23.040v-145.92c0-15.36-10.24-25.6-25.6-25.6zM486.4 12.8h51.2v102.4h-51.2v-102.4zM555.52 115.2v0 0zM409.6 678.4c-15.36 0-25.6 10.24-25.6 25.6s10.24 25.6 25.6 25.6 25.6-10.24 25.6-25.6v0c0-15.36-10.24-25.6-25.6-25.6zM409.6 268.8c-15.36 0-25.6 10.24-25.6 25.6s10.24 25.6 25.6 25.6 25.6-10.24 25.6-25.6v0c0-15.36-10.24-25.6-25.6-25.6zM409.6 473.6c-15.36 0-25.6 10.24-25.6 25.6s10.24 25.6 25.6 25.6 25.6-10.24 25.6-25.6v0c0-15.36-10.24-25.6-25.6-25.6zM614.4 678.4c-15.36 0-25.6 10.24-25.6 25.6s10.24 25.6 25.6 25.6 25.6-10.24 25.6-25.6v0c0-15.36-10.24-25.6-25.6-25.6zM614.4 473.6c-15.36 0-25.6 10.24-25.6 25.6s10.24 25.6 25.6 25.6 25.6-10.24 25.6-25.6v0c0-15.36-10.24-25.6-25.6-25.6zM614.4 268.8c-15.36 0-25.6 10.24-25.6 25.6s10.24 25.6 25.6 25.6 25.6-10.24 25.6-25.6v0c0-15.36-10.24-25.6-25.6-25.6z" />
<glyph unicode="&#xe909;" glyph-name="calendar" d="M819.2-38.4h-614.4c-71.68 0-128 56.32-128 128v614.4c0 71.68 56.32 128 128 128h614.4c71.68 0 128-56.32 128-128v-614.4c0-71.68-56.32-128-128-128zM204.8 780.8c-43.52 0-76.8-33.28-76.8-76.8v-614.4c0-43.52 33.28-76.8 76.8-76.8h614.4c43.52 0 76.8 33.28 76.8 76.8v614.4c0 43.52-33.28 76.8-76.8 76.8h-614.4zM716.8 678.4c-15.36 0-25.6 10.24-25.6 25.6v204.8c0 15.36 10.24 25.6 25.6 25.6s25.6-10.24 25.6-25.6v-204.8c0-15.36-10.24-25.6-25.6-25.6zM307.2 678.4c-15.36 0-25.6 10.24-25.6 25.6v204.8c0 15.36 10.24 25.6 25.6 25.6s25.6-10.24 25.6-25.6v-204.8c0-15.36-10.24-25.6-25.6-25.6zM921.6 576h-819.2c-15.36 0-25.6 10.24-25.6 25.6s10.24 25.6 25.6 25.6h819.2c15.36 0 25.6-10.24 25.6-25.6s-10.24-25.6-25.6-25.6zM409.6 371.2h-153.6c-15.36 0-25.6 10.24-25.6 25.6s10.24 25.6 25.6 25.6h153.6c15.36 0 25.6-10.24 25.6-25.6s-10.24-25.6-25.6-25.6zM768 371.2h-153.6c-15.36 0-25.6 10.24-25.6 25.6s10.24 25.6 25.6 25.6h153.6c15.36 0 25.6-10.24 25.6-25.6s-10.24-25.6-25.6-25.6zM409.6 166.4h-153.6c-15.36 0-25.6 10.24-25.6 25.6s10.24 25.6 25.6 25.6h153.6c15.36 0 25.6-10.24 25.6-25.6s-10.24-25.6-25.6-25.6zM768 166.4h-153.6c-15.36 0-25.6 10.24-25.6 25.6s10.24 25.6 25.6 25.6h153.6c15.36 0 25.6-10.24 25.6-25.6s-10.24-25.6-25.6-25.6z" />
<glyph unicode="&#xe90a;" glyph-name="caret-down" d="M512 155.429c-21.943 0-36.571 7.314-51.2 21.943l-438.857 438.857c-29.257 29.257-29.257 73.143 0 102.4s73.143 29.257 102.4 0l387.657-387.657 387.657 387.657c29.257 29.257 73.143 29.257 102.4 0s29.257-73.143 0-102.4l-438.857-438.857c-14.629-14.629-29.257-21.943-51.2-21.943z" />
<glyph unicode="&#xe90b;" glyph-name="case-study" d="M921.6 140.8h-204.8c-15.36 0-25.6 10.24-25.6 25.6v204.8c0 15.36 10.24 25.6 25.6 25.6s25.6-10.24 25.6-25.6v-179.2h179.2c15.36 0 25.6-10.24 25.6-25.6s-10.24-25.6-25.6-25.6zM716.8-64c-128 0-230.4 102.4-230.4 230.4s102.4 230.4 230.4 230.4 230.4-102.4 230.4-230.4-102.4-230.4-230.4-230.4zM716.8 345.6c-99.84 0-179.2-79.36-179.2-179.2s79.36-179.2 179.2-179.2 179.2 79.36 179.2 179.2-79.36 179.2-179.2 179.2zM588.8 499.2h-281.6c-15.36 0-25.6 10.24-25.6 25.6s10.24 25.6 25.6 25.6h281.6c15.36 0 25.6-10.24 25.6-25.6s-10.24-25.6-25.6-25.6zM460.8 652.8h-153.6c-15.36 0-25.6 10.24-25.6 25.6s10.24 25.6 25.6 25.6h153.6c15.36 0 25.6-10.24 25.6-25.6s-10.24-25.6-25.6-25.6zM435.2 345.6h-128c-15.36 0-25.6 10.24-25.6 25.6s10.24 25.6 25.6 25.6h128c15.36 0 25.6-10.24 25.6-25.6s-10.24-25.6-25.6-25.6zM409.6-12.8h-204.8c-43.52 0-76.8 33.28-76.8 76.8v819.2c0 43.52 33.28 76.8 76.8 76.8h409.6c7.68 0 12.8-2.56 17.92-7.68l256-256c5.12-5.12 7.68-10.24 7.68-17.92v-204.8c0-15.36-10.24-25.6-25.6-25.6s-25.6 10.24-25.6 25.6v194.56l-240.64 240.64h-399.36c-15.36 0-25.6-10.24-25.6-25.6v-819.2c0-15.36 10.24-25.6 25.6-25.6h204.8c15.36 0 25.6-10.24 25.6-25.6s-10.24-25.6-25.6-25.6zM870.4 652.8h-204.8c-20.48 0-40.96 7.68-53.76 23.040-15.36 12.8-23.040 33.28-23.040 53.76v204.8c0 15.36 10.24 25.6 25.6 25.6s25.6-10.24 25.6-25.6v-204.8c0-7.68 2.56-12.8 7.68-17.92s10.24-7.68 17.92-7.68h204.8c15.36 0 25.6-10.24 25.6-25.6s-10.24-25.6-25.6-25.6z" />
<glyph unicode="&#xe90c;" glyph-name="chart-candle" d="M256 473.6h-102.4c-43.52 0-76.8 33.28-76.8 76.8v153.6c0 43.52 33.28 76.8 76.8 76.8h102.4c43.52 0 76.8-33.28 76.8-76.8v-153.6c0-43.52-33.28-76.8-76.8-76.8zM153.6 729.6c-15.36 0-25.6-10.24-25.6-25.6v-153.6c0-15.36 10.24-25.6 25.6-25.6h102.4c15.36 0 25.6 10.24 25.6 25.6v153.6c0 15.36-10.24 25.6-25.6 25.6h-102.4zM204.8 729.6c-15.36 0-25.6 10.24-25.6 25.6v102.4c0 15.36 10.24 25.6 25.6 25.6s25.6-10.24 25.6-25.6v-102.4c0-15.36-10.24-25.6-25.6-25.6zM204.8 12.8c-15.36 0-25.6 10.24-25.6 25.6v460.8c0 15.36 10.24 25.6 25.6 25.6s25.6-10.24 25.6-25.6v-460.8c0-15.36-10.24-25.6-25.6-25.6zM563.2 115.2h-102.4c-43.52 0-76.8 33.28-76.8 76.8v153.6c0 43.52 33.28 76.8 76.8 76.8h102.4c43.52 0 76.8-33.28 76.8-76.8v-153.6c0-43.52-33.28-76.8-76.8-76.8zM460.8 371.2c-15.36 0-25.6-10.24-25.6-25.6v-153.6c0-15.36 10.24-25.6 25.6-25.6h102.4c15.36 0 25.6 10.24 25.6 25.6v153.6c0 15.36-10.24 25.6-25.6 25.6h-102.4zM512 371.2c-15.36 0-25.6 10.24-25.6 25.6v460.8c0 15.36 10.24 25.6 25.6 25.6s25.6-10.24 25.6-25.6v-460.8c0-15.36-10.24-25.6-25.6-25.6zM512 12.8c-15.36 0-25.6 10.24-25.6 25.6v102.4c0 15.36 10.24 25.6 25.6 25.6s25.6-10.24 25.6-25.6v-102.4c0-15.36-10.24-25.6-25.6-25.6zM870.4 422.4h-102.4c-43.52 0-76.8 33.28-76.8 76.8v204.8c0 43.52 33.28 76.8 76.8 76.8h102.4c43.52 0 76.8-33.28 76.8-76.8v-204.8c0-43.52-33.28-76.8-76.8-76.8zM768 729.6c-15.36 0-25.6-10.24-25.6-25.6v-204.8c0-15.36 10.24-25.6 25.6-25.6h102.4c15.36 0 25.6 10.24 25.6 25.6v204.8c0 15.36-10.24 25.6-25.6 25.6h-102.4zM819.2 729.6c-15.36 0-25.6 10.24-25.6 25.6v102.4c0 15.36 10.24 25.6 25.6 25.6s25.6-10.24 25.6-25.6v-102.4c0-15.36-10.24-25.6-25.6-25.6zM819.2 12.8c-15.36 0-25.6 10.24-25.6 25.6v409.6c0 15.36 10.24 25.6 25.6 25.6s25.6-10.24 25.6-25.6v-409.6c0-15.36-10.24-25.6-25.6-25.6z" />
<glyph unicode="&#xe90d;" glyph-name="route" d="M307.2-38.4c-71.68 0-128 56.32-128 128s56.32 128 128 128 128-56.32 128-128-56.32-128-128-128zM307.2 166.4c-43.52 0-76.8-33.28-76.8-76.8s33.28-76.8 76.8-76.8 76.8 33.28 76.8 76.8-33.28 76.8-76.8 76.8zM768 678.4c-71.68 0-128 56.32-128 128s56.32 128 128 128 128-56.32 128-128-56.32-128-128-128zM768 883.2c-43.52 0-76.8-33.28-76.8-76.8s33.28-76.8 76.8-76.8 76.8 33.28 76.8 76.8-33.28 76.8-76.8 76.8zM691.2 64h-179.2c-15.36 0-25.6 10.24-25.6 25.6s10.24 25.6 25.6 25.6h179.2c40.96 0 79.36 15.36 107.52 46.080 28.16 28.16 46.080 66.56 46.080 107.52s-15.36 79.36-46.080 107.52c-28.16 30.72-66.56 46.080-107.52 46.080h-307.2c-53.76 0-104.96 20.48-145.92 58.88-38.4 40.96-58.88 92.16-58.88 145.92s20.48 104.96 58.88 145.92c40.96 38.4 92.16 58.88 145.92 58.88h179.2c15.36 0 25.6-10.24 25.6-25.6s-10.24-25.6-25.6-25.6h-179.2c-40.96 0-79.36-15.36-107.52-46.080-30.72-28.16-46.080-66.56-46.080-107.52s15.36-79.36 46.080-107.52c28.16-28.16 66.56-46.080 107.52-46.080h307.2c53.76 0 104.96-20.48 145.92-58.88 38.4-38.4 58.88-89.6 58.88-145.92s-20.48-104.96-58.88-145.92c-40.96-38.4-92.16-58.88-145.92-58.88z" />
<glyph unicode="&#xe90e;" glyph-name="checklist" d="M153.6 678.4c-7.68 0-12.8 2.56-17.92 7.68l-76.8 76.8c-10.24 10.24-10.24 25.6 0 35.84s25.6 10.24 35.84 0l58.88-58.88 110.080 110.080c10.24 10.24 25.6 10.24 35.84 0s10.24-25.6 0-35.84l-128-128c-5.12-5.12-10.24-7.68-17.92-7.68zM153.6 371.2c-7.68 0-12.8 2.56-17.92 7.68l-76.8 76.8c-10.24 10.24-10.24 25.6 0 35.84s25.6 10.24 35.84 0l58.88-58.88 110.080 110.080c10.24 10.24 25.6 10.24 35.84 0s10.24-25.6 0-35.84l-128-128c-5.12-5.12-10.24-7.68-17.92-7.68zM153.6 64c-7.68 0-12.8 2.56-17.92 7.68l-76.8 76.8c-10.24 10.24-10.24 25.6 0 35.84s25.6 10.24 35.84 0l58.88-58.88 110.080 110.080c10.24 10.24 25.6 10.24 35.84 0s10.24-25.6 0-35.84l-128-128c-5.12-5.12-10.24-7.68-17.92-7.68zM921.6 729.6h-460.8c-15.36 0-25.6 10.24-25.6 25.6s10.24 25.6 25.6 25.6h460.8c15.36 0 25.6-10.24 25.6-25.6s-10.24-25.6-25.6-25.6zM921.6 422.4h-460.8c-15.36 0-25.6 10.24-25.6 25.6s10.24 25.6 25.6 25.6h460.8c15.36 0 25.6-10.24 25.6-25.6s-10.24-25.6-25.6-25.6zM921.6 115.2h-460.8c-15.36 0-25.6 10.24-25.6 25.6s10.24 25.6 25.6 25.6h460.8c15.36 0 25.6-10.24 25.6-25.6s-10.24-25.6-25.6-25.6z" />
<glyph unicode="&#xe90f;" glyph-name="circle-check" d="M512-64c-281.6 0-512 230.4-512 512s230.4 512 512 512c281.6 0 512-230.4 512-512s-230.4-512-512-512zM512 874.667c-234.667 0-426.667-192-426.667-426.667s192-426.667 426.667-426.667c234.667 0 426.667 192 426.667 426.667s-192 426.667-426.667 426.667zM469.333 277.333c-12.8 0-21.333 4.267-29.867 12.8l-170.667 170.667c-17.067 17.067-17.067 42.667 0 59.733s42.667 17.067 59.733 0l140.8-140.8 226.133 226.133c17.067 17.067 42.667 17.067 59.733 0s17.067-42.667 0-59.733l-256-256c-8.533-8.533-17.067-12.8-29.867-12.8z" />
<glyph unicode="&#xe910;" glyph-name="circle-web" d="M512 268.8c-99.84 0-179.2 79.36-179.2 179.2s79.36 179.2 179.2 179.2c99.84 0 179.2-79.36 179.2-179.2s-79.36-179.2-179.2-179.2zM512 576c-71.68 0-128-56.32-128-128s56.32-128 128-128 128 56.32 128 128-56.32 128-128 128zM76.8 371.2c-43.52 0-76.8 33.28-76.8 76.8s33.28 76.8 76.8 76.8 76.8-33.28 76.8-76.8-33.28-76.8-76.8-76.8zM76.8 473.6c-15.36 0-25.6-10.24-25.6-25.6s10.24-25.6 25.6-25.6 25.6 10.24 25.6 25.6-10.24 25.6-25.6 25.6zM947.2 371.2c-43.52 0-76.8 33.28-76.8 76.8s33.28 76.8 76.8 76.8 76.8-33.28 76.8-76.8-33.28-76.8-76.8-76.8zM947.2 473.6c-15.36 0-25.6-10.24-25.6-25.6s10.24-25.6 25.6-25.6 25.6 10.24 25.6 25.6-10.24 25.6-25.6 25.6zM358.4 422.4h-230.4c-15.36 0-25.6 10.24-25.6 25.6s10.24 25.6 25.6 25.6h230.4c15.36 0 25.6-10.24 25.6-25.6s-10.24-25.6-25.6-25.6zM896 422.4h-230.4c-15.36 0-25.6 10.24-25.6 25.6s10.24 25.6 25.6 25.6h230.4c15.36 0 25.6-10.24 25.6-25.6s-10.24-25.6-25.6-25.6zM512 806.4c-43.52 0-76.8 33.28-76.8 76.8s33.28 76.8 76.8 76.8 76.8-33.28 76.8-76.8-33.28-76.8-76.8-76.8zM512 908.8c-15.36 0-25.6-10.24-25.6-25.6s10.24-25.6 25.6-25.6 25.6 10.24 25.6 25.6-10.24 25.6-25.6 25.6zM512-64c-43.52 0-76.8 33.28-76.8 76.8s33.28 76.8 76.8 76.8 76.8-33.28 76.8-76.8-33.28-76.8-76.8-76.8zM512 38.4c-15.36 0-25.6-10.24-25.6-25.6s10.24-25.6 25.6-25.6 25.6 10.24 25.6 25.6-10.24 25.6-25.6 25.6zM512 576c-15.36 0-25.6 10.24-25.6 25.6v230.4c0 15.36 10.24 25.6 25.6 25.6s25.6-10.24 25.6-25.6v-230.4c0-15.36-10.24-25.6-25.6-25.6zM512 38.4c-15.36 0-25.6 10.24-25.6 25.6v230.4c0 15.36 10.24 25.6 25.6 25.6s25.6-10.24 25.6-25.6v-230.4c0-15.36-10.24-25.6-25.6-25.6zM768 627.2c-43.52 0-76.8 33.28-76.8 76.8s33.28 76.8 76.8 76.8 76.8-33.28 76.8-76.8-33.28-76.8-76.8-76.8zM768 729.6c-15.36 0-25.6-10.24-25.6-25.6s10.24-25.6 25.6-25.6 25.6 10.24 25.6 25.6-10.24 25.6-25.6 25.6zM256 115.2c-43.52 0-76.8 33.28-76.8 76.8s33.28 76.8 76.8 76.8 76.8-33.28 76.8-76.8-33.28-76.8-76.8-76.8zM256 217.6c-15.36 0-25.6-10.24-25.6-25.6s10.24-25.6 25.6-25.6 25.6 10.24 25.6 25.6-10.24 25.6-25.6 25.6zM768 115.2c-43.52 0-76.8 33.28-76.8 76.8s33.28 76.8 76.8 76.8 76.8-33.28 76.8-76.8-33.28-76.8-76.8-76.8zM768 217.6c-15.36 0-25.6-10.24-25.6-25.6s10.24-25.6 25.6-25.6 25.6 10.24 25.6 25.6-10.24 25.6-25.6 25.6zM256 627.2c-43.52 0-76.8 33.28-76.8 76.8s33.28 76.8 76.8 76.8 76.8-33.28 76.8-76.8-33.28-76.8-76.8-76.8zM256 729.6c-15.36 0-25.6-10.24-25.6-25.6s10.24-25.6 25.6-25.6 25.6 10.24 25.6 25.6-10.24 25.6-25.6 25.6z" />
<glyph unicode="&#xe911;" glyph-name="close" d="M921.6-34.743c-21.943 0-36.571 7.314-51.2 21.943l-358.4 358.4-358.4-358.4c-29.257-29.257-73.143-29.257-102.4 0s-29.257 73.143 0 102.4l358.4 358.4-358.4 358.4c-29.257 29.257-29.257 73.143 0 102.4s73.143 29.257 102.4 0l358.4-358.4 358.4 358.4c29.257 29.257 73.143 29.257 102.4 0s29.257-73.143 0-102.4l-358.4-358.4 358.4-358.4c29.257-29.257 29.257-73.143 0-102.4-14.629-14.629-29.257-21.943-51.2-21.943z" />
<glyph unicode="&#xe912;" glyph-name="cloud-arrow" d="M808.96 166.4c-15.36 0-25.6 10.24-25.6 25.6s10.24 25.6 25.6 25.6c35.84 0 71.68 15.36 97.28 40.96s40.96 61.44 40.96 97.28c0 35.84-15.36 71.68-40.96 97.28s-61.44 40.96-97.28 40.96h-46.080c-7.68 0-15.36 2.56-20.48 10.24-5.12 5.12-7.68 12.8-5.12 20.48 5.12 28.16 5.12 53.76 0 81.92s-17.92 53.76-33.28 76.8c-17.92 25.6-38.4 46.080-64 61.44s-53.76 25.6-84.48 33.28c-30.72 5.12-61.44 5.12-92.16 0s-58.88-15.36-87.040-30.72c-51.2-30.72-87.040-79.36-99.84-135.68-2.56-12.8-12.8-20.48-25.6-20.48-43.52 2.56-87.040-10.24-122.88-35.84s-58.88-61.44-69.12-102.4c-10.24-40.96-5.12-84.48 12.8-120.32 17.92-38.4 51.2-69.12 92.16-84.48 12.8-5.12 17.92-20.48 12.8-33.28-7.68-17.92-23.040-23.040-35.84-17.92-51.2 23.040-92.16 61.44-115.2 110.080-25.6 48.64-30.72 104.96-17.92 156.16s43.52 99.84 89.6 130.56c38.4 28.16 84.48 43.52 133.12 46.080 17.92 58.88 61.44 112.64 117.76 148.48 30.72 17.92 66.56 30.72 102.4 38.4s74.24 7.68 110.080 0c35.84-7.68 71.68-20.48 102.4-38.4 30.72-20.48 58.88-43.52 79.36-71.68s35.84-61.44 43.52-94.72c5.12-23.040 7.68-48.64 5.12-71.68h17.92c48.64 0 97.28-20.48 133.12-56.32s56.32-84.48 56.32-135.68c0-51.2-20.48-97.28-56.32-135.68-33.28-35.84-81.92-56.32-133.12-56.32zM640 166.4h-332.8c-15.36 0-25.6 10.24-25.6 25.6s10.24 25.6 25.6 25.6h332.8c15.36 0 25.6-10.24 25.6-25.6s-10.24-25.6-25.6-25.6zM563.2 64c-7.68 0-12.8 2.56-17.92 7.68-10.24 10.24-10.24 25.6 0 35.84l84.48 84.48-84.48 84.48c-10.24 10.24-10.24 25.6 0 35.84s25.6 10.24 35.84 0l102.4-102.4c10.24-10.24 10.24-25.6 0-35.84l-102.4-102.4c-5.12-5.12-10.24-7.68-17.92-7.68z" />
<glyph unicode="&#xe913;" glyph-name="code" d="M256 217.6c-7.68 0-12.8 2.56-17.92 7.68l-204.8 204.8c-10.24 10.24-10.24 25.6 0 35.84l204.8 204.8c10.24 10.24 25.6 10.24 35.84 0s10.24-25.6 0-35.84l-186.88-186.88 186.88-186.88c10.24-10.24 10.24-25.6 0-35.84-5.12-5.12-10.24-7.68-17.92-7.68zM768 217.6c-7.68 0-12.8 2.56-17.92 7.68-10.24 10.24-10.24 25.6 0 35.84l186.88 186.88-186.88 186.88c-10.24 10.24-10.24 25.6 0 35.84s25.6 10.24 35.84 0l204.8-204.8c10.24-10.24 10.24-25.6 0-35.84l-204.8-204.8c-5.12-5.12-10.24-7.68-17.92-7.68zM409.6 12.8c-2.56 0-5.12 0-5.12 0-12.8 2.56-23.040 17.92-17.92 30.72l204.8 819.2c2.56 12.8 17.92 23.040 30.72 17.92 12.8-2.56 23.040-17.92 17.92-30.72l-204.8-819.2c-2.56-10.24-15.36-17.92-25.6-17.92z" />
<glyph unicode="&#xe914;" glyph-name="coin-stack" d="M716.8 576c-158.72 0-281.6 79.36-281.6 179.2s122.88 179.2 281.6 179.2 281.6-79.36 281.6-179.2-122.88-179.2-281.6-179.2zM716.8 883.2c-125.44 0-230.4-58.88-230.4-128s104.96-128 230.4-128 230.4 58.88 230.4 128-104.96 128-230.4 128zM716.8 371.2c-158.72 0-281.6 79.36-281.6 179.2v204.8c0 15.36 10.24 25.6 25.6 25.6s25.6-10.24 25.6-25.6v-204.8c0-69.12 104.96-128 230.4-128s230.4 58.88 230.4 128v204.8c0 15.36 10.24 25.6 25.6 25.6s25.6-10.24 25.6-25.6v-204.8c0-99.84-122.88-179.2-281.6-179.2zM716.8 166.4c-158.72 0-281.6 79.36-281.6 179.2v204.8c0 15.36 10.24 25.6 25.6 25.6s25.6-10.24 25.6-25.6v-204.8c0-69.12 104.96-128 230.4-128s230.4 58.88 230.4 128v204.8c0 15.36 10.24 25.6 25.6 25.6s25.6-10.24 25.6-25.6v-204.8c0-99.84-122.88-179.2-281.6-179.2zM716.8-38.4c-158.72 0-281.6 79.36-281.6 179.2v204.8c0 15.36 10.24 25.6 25.6 25.6s25.6-10.24 25.6-25.6v-204.8c0-69.12 104.96-128 230.4-128s230.4 58.88 230.4 128v204.8c0 15.36 10.24 25.6 25.6 25.6s25.6-10.24 25.6-25.6v-204.8c0-99.84-122.88-179.2-281.6-179.2zM179.2 268.8h-128c-15.36 0-25.6 10.24-25.6 25.6s10.24 25.6 25.6 25.6h128c12.8 0 25.6 5.12 35.84 15.36s15.36 23.040 15.36 35.84-5.12 25.6-15.36 35.84-23.040 15.36-35.84 15.36h-51.2c-28.16 0-53.76 10.24-71.68 30.72-20.48 17.92-30.72 43.52-30.72 71.68s10.24 53.76 30.72 71.68c17.92 20.48 43.52 30.72 71.68 30.72h128c15.36 0 25.6-10.24 25.6-25.6s-10.24-25.6-25.6-25.6h-128c-12.8 0-25.6-5.12-35.84-15.36s-15.36-23.040-15.36-35.84 5.12-25.6 15.36-35.84c10.24-10.24 23.040-15.36 35.84-15.36h51.2c28.16 0 53.76-10.24 71.68-30.72 20.48-20.48 30.72-46.080 30.72-71.68s-10.24-53.76-30.72-71.68c-17.92-20.48-43.52-30.72-71.68-30.72zM153.6 217.6c-15.36 0-25.6 10.24-25.6 25.6v51.2c0 15.36 10.24 25.6 25.6 25.6s25.6-10.24 25.6-25.6v-51.2c0-15.36-10.24-25.6-25.6-25.6zM153.6 576c-15.36 0-25.6 10.24-25.6 25.6v51.2c0 15.36 10.24 25.6 25.6 25.6s25.6-10.24 25.6-25.6v-51.2c0-15.36-10.24-25.6-25.6-25.6z" />
<glyph unicode="&#xe915;" glyph-name="computer-bar-chart" d="M921.6 166.4h-819.2c-43.52 0-76.8 33.28-76.8 76.8v512c0 43.52 33.28 76.8 76.8 76.8h819.2c43.52 0 76.8-33.28 76.8-76.8v-512c0-43.52-33.28-76.8-76.8-76.8zM102.4 780.8c-15.36 0-25.6-10.24-25.6-25.6v-512c0-15.36 10.24-25.6 25.6-25.6h819.2c15.36 0 25.6 10.24 25.6 25.6v512c0 15.36-10.24 25.6-25.6 25.6h-819.2zM716.8 64h-409.6c-15.36 0-25.6 10.24-25.6 25.6s10.24 25.6 25.6 25.6h409.6c15.36 0 25.6-10.24 25.6-25.6s-10.24-25.6-25.6-25.6zM665.6 320c-15.36 0-25.6 10.24-25.6 25.6v307.2c0 15.36 10.24 25.6 25.6 25.6s25.6-10.24 25.6-25.6v-307.2c0-15.36-10.24-25.6-25.6-25.6zM819.2 320c-15.36 0-25.6 10.24-25.6 25.6v204.8c0 15.36 10.24 25.6 25.6 25.6s25.6-10.24 25.6-25.6v-204.8c0-15.36-10.24-25.6-25.6-25.6zM204.8 320c-15.36 0-25.6 10.24-25.6 25.6v153.6c0 15.36 10.24 25.6 25.6 25.6s25.6-10.24 25.6-25.6v-153.6c0-15.36-10.24-25.6-25.6-25.6zM512 371.2c-15.36 0-25.6 10.24-25.6 25.6v51.2c0 15.36 10.24 25.6 25.6 25.6s25.6-10.24 25.6-25.6v-51.2c0-15.36-10.24-25.6-25.6-25.6zM358.4 320c-15.36 0-25.6 10.24-25.6 25.6v102.4c0 15.36 10.24 25.6 25.6 25.6s25.6-10.24 25.6-25.6v-102.4c0-15.36-10.24-25.6-25.6-25.6zM512 320c-15.36 0-25.6 10.24-25.6 25.6v204.8c0 15.36 10.24 25.6 25.6 25.6s25.6-10.24 25.6-25.6v-204.8c0-15.36-10.24-25.6-25.6-25.6z" />
<glyph unicode="&#xe916;" glyph-name="computer-chart" d="M716.8 64h-409.6c-15.36 0-25.6 10.24-25.6 25.6s10.24 25.6 25.6 25.6h409.6c15.36 0 25.6-10.24 25.6-25.6s-10.24-25.6-25.6-25.6zM921.6 166.4h-819.2c-43.52 0-76.8 33.28-76.8 76.8v512c0 43.52 33.28 76.8 76.8 76.8h819.2c43.52 0 76.8-33.28 76.8-76.8v-512c0-43.52-33.28-76.8-76.8-76.8zM102.4 780.8c-15.36 0-25.6-10.24-25.6-25.6v-512c0-15.36 10.24-25.6 25.6-25.6h819.2c15.36 0 25.6 10.24 25.6 25.6v512c0 15.36-10.24 25.6-25.6 25.6h-819.2zM256 371.2c-7.68 0-15.36 2.56-20.48 10.24-7.68 10.24-5.12 28.16 5.12 35.84l204.8 153.6c10.24 7.68 25.6 7.68 33.28-2.56l87.040-87.040 186.88 140.8c10.24 7.68 28.16 5.12 35.84-5.12s5.12-28.16-5.12-35.84l-204.8-153.6c-10.24-7.68-25.6-7.68-33.28 2.56l-87.040 87.040-186.88-140.8c-5.12-2.56-10.24-5.12-15.36-5.12z" />
<glyph unicode="&#xe917;" glyph-name="computer-check" d="M921.6 166.4h-819.2c-43.52 0-76.8 33.28-76.8 76.8v512c0 43.52 33.28 76.8 76.8 76.8h665.6c15.36 0 25.6-10.24 25.6-25.6s-10.24-25.6-25.6-25.6h-665.6c-15.36 0-25.6-10.24-25.6-25.6v-512c0-15.36 10.24-25.6 25.6-25.6h819.2c15.36 0 25.6 10.24 25.6 25.6v358.4c0 15.36 10.24 25.6 25.6 25.6s25.6-10.24 25.6-25.6v-358.4c0-43.52-33.28-76.8-76.8-76.8zM716.8 64h-409.6c-15.36 0-25.6 10.24-25.6 25.6s10.24 25.6 25.6 25.6h409.6c15.36 0 25.6-10.24 25.6-25.6s-10.24-25.6-25.6-25.6zM716.8 524.8c-7.68 0-12.8 2.56-17.92 7.68l-102.4 102.4c-10.24 10.24-10.24 25.6 0 35.84s25.6 10.24 35.84 0l84.48-84.48 186.88 186.88c10.24 10.24 25.6 10.24 35.84 0s10.24-25.6 0-35.84l-204.8-204.8c-5.12-5.12-10.24-7.68-17.92-7.68z" />
<glyph unicode="&#xe918;" glyph-name="computer-cloud" d="M893.44 483.84h-273.92c-74.24 0-133.12 56.32-133.12 128 0 64 48.64 117.76 112.64 128 25.6 64 99.84 104.96 174.080 92.16 40.96-7.68 79.36-30.72 102.4-64 15.36-20.48 23.040-46.080 23.040-71.68 56.32-2.56 99.84-48.64 99.84-104.96 0-61.44-46.080-107.52-104.96-107.52zM744.96 780.8c-48.64 0-89.6-30.72-99.84-71.68-2.56-12.8-12.8-20.48-25.6-20.48-46.080 0-81.92-35.84-81.92-76.8s35.84-76.8 81.92-76.8h273.92c30.72 0 53.76 25.6 53.76 53.76s-25.6 53.76-53.76 53.76h-23.040c-7.68 0-15.36 2.56-20.48 10.24-5.12 5.12-7.68 12.8-5.12 20.48 5.12 20.48 0 43.52-12.8 61.44-12.8 23.040-38.4 38.4-66.56 43.52-7.68 2.56-12.8 2.56-20.48 2.56zM921.6 166.4h-819.2c-43.52 0-76.8 33.28-76.8 76.8v512c0 43.52 33.28 76.8 76.8 76.8h409.6c15.36 0 25.6-10.24 25.6-25.6s-10.24-25.6-25.6-25.6h-409.6c-15.36 0-25.6-10.24-25.6-25.6v-512c0-15.36 10.24-25.6 25.6-25.6h819.2c15.36 0 25.6 10.24 25.6 25.6v153.6c0 15.36 10.24 25.6 25.6 25.6s25.6-10.24 25.6-25.6v-153.6c0-43.52-33.28-76.8-76.8-76.8zM716.8 64h-409.6c-15.36 0-25.6 10.24-25.6 25.6s10.24 25.6 25.6 25.6h409.6c15.36 0 25.6-10.24 25.6-25.6s-10.24-25.6-25.6-25.6z" />
<glyph unicode="&#xe919;" glyph-name="cube" d="M512-38.4c-5.12 0-7.68 0-12.8 2.56l-409.6 230.4c-7.68 5.12-12.8 12.8-12.8 23.040v460.8c0 10.24 5.12 17.92 12.8 23.040l409.6 230.4c7.68 5.12 17.92 5.12 25.6 0l409.6-230.4c7.68-5.12 12.8-12.8 12.8-23.040v-460.8c0-10.24-5.12-17.92-12.8-23.040l-409.6-230.4c-5.12-2.56-7.68-2.56-12.8-2.56zM128 232.96l384-215.040 384 215.040v430.080l-384 217.6-384-217.6v-430.080zM512 422.4c-7.68 0-17.92 5.12-23.040 12.8-7.68 12.8-2.56 28.16 10.24 35.84l256 143.36c12.8 7.68 28.16 2.56 35.84-10.24s2.56-28.16-10.24-35.84l-256-143.36c-5.12-2.56-7.68-2.56-12.8-2.56zM512 135.68c-15.36 0-25.6 10.24-25.6 25.6v286.72c0 15.36 10.24 25.6 25.6 25.6s25.6-10.24 25.6-25.6v-286.72c0-15.36-10.24-25.6-25.6-25.6zM512 422.4c-5.12 0-7.68 0-12.8 2.56l-256 143.36c-12.8 7.68-15.36 23.040-10.24 35.84 7.68 12.8 23.040 17.92 35.84 10.24l256-143.36c12.8-7.68 17.92-23.040 10.24-35.84-5.12-7.68-15.36-12.8-23.040-12.8z" />
<glyph unicode="&#xe91a;" glyph-name="database-cloud" d="M512 576c-209.92 0-435.2 64-435.2 179.2s225.28 179.2 435.2 179.2 435.2-64 435.2-179.2-225.28-179.2-435.2-179.2zM512 883.2c-220.16 0-384-66.56-384-128s163.84-128 384-128 384 66.56 384 128-163.84 128-384 128zM332.8-23.040c-2.56 0-2.56 0-5.12 0-156.16 28.16-250.88 89.6-250.88 163.84v614.4c0 15.36 10.24 25.6 25.6 25.6s25.6-10.24 25.6-25.6v-614.4c0-35.84 66.56-87.040 209.92-112.64 12.8-2.56 23.040-15.36 20.48-30.72-2.56-12.8-12.8-20.48-25.6-20.48zM921.6 294.4c-15.36 0-25.6 10.24-25.6 25.6v435.2c0 15.36 10.24 25.6 25.6 25.6s25.6-10.24 25.6-25.6v-435.2c0-15.36-10.24-25.6-25.6-25.6zM512 371.2c-209.92 0-435.2 64-435.2 179.2 0 15.36 10.24 25.6 25.6 25.6s25.6-10.24 25.6-25.6c0-61.44 163.84-128 384-128s384 66.56 384 128c0 15.36 10.24 25.6 25.6 25.6s25.6-10.24 25.6-25.6c0-115.2-225.28-179.2-435.2-179.2zM332.8 181.76c-2.56 0-2.56 0-5.12 0-156.16 28.16-250.88 89.6-250.88 163.84 0 15.36 10.24 25.6 25.6 25.6s25.6-10.24 25.6-25.6c0-35.84 66.56-87.040 209.92-112.64 12.8-2.56 23.040-15.36 20.48-30.72-2.56-12.8-12.8-20.48-25.6-20.48zM842.24-38.4h-273.92c-74.24 0-133.12 58.88-133.12 130.56 0 66.56 48.64 120.32 112.64 130.56 25.6 66.56 99.84 107.52 174.080 94.72 40.96-7.68 76.8-30.72 99.84-64 15.36-23.040 23.040-48.64 23.040-74.24 56.32-2.56 99.84-51.2 99.84-107.52 2.56-61.44-43.52-110.080-102.4-110.080zM693.76 268.8c-48.64 0-89.6-30.72-99.84-74.24-2.56-12.8-12.8-20.48-25.6-20.48-46.080 0-81.92-35.84-81.92-79.36s35.84-79.36 81.92-79.36h273.92c30.72 0 53.76 25.6 53.76 56.32s-25.6 56.32-53.76 56.32h-23.040c-7.68 0-15.36 2.56-20.48 10.24-5.12 2.56-5.12 12.8-5.12 17.92 5.12 23.040 0 46.080-12.8 66.56-15.36 23.040-38.4 38.4-66.56 43.52-7.68 2.56-12.8 2.56-20.48 2.56z" />
<glyph unicode="&#xe91b;" glyph-name="database-double" d="M512 576c-209.92 0-435.2 64-435.2 179.2s225.28 179.2 435.2 179.2 435.2-64 435.2-179.2-225.28-179.2-435.2-179.2zM512 883.2c-220.16 0-384-66.56-384-128s163.84-128 384-128 384 66.56 384 128-163.84 128-384 128zM512 268.8c-209.92 0-435.2 64-435.2 179.2v307.2c0 15.36 10.24 25.6 25.6 25.6s25.6-10.24 25.6-25.6v-307.2c0-61.44 163.84-128 384-128s384 66.56 384 128v307.2c0 15.36 10.24 25.6 25.6 25.6s25.6-10.24 25.6-25.6v-307.2c0-115.2-225.28-179.2-435.2-179.2zM512-38.4c-209.92 0-435.2 64-435.2 179.2v307.2c0 15.36 10.24 25.6 25.6 25.6s25.6-10.24 25.6-25.6v-307.2c0-61.44 163.84-128 384-128s384 66.56 384 128v307.2c0 15.36 10.24 25.6 25.6 25.6s25.6-10.24 25.6-25.6v-307.2c0-115.2-225.28-179.2-435.2-179.2z" />
<glyph unicode="&#xe91c;" glyph-name="database-triple" d="M512 576c-209.92 0-435.2 64-435.2 179.2s225.28 179.2 435.2 179.2 435.2-64 435.2-179.2-225.28-179.2-435.2-179.2zM512 883.2c-220.16 0-384-66.56-384-128s163.84-128 384-128 384 66.56 384 128-163.84 128-384 128zM512-38.4c-209.92 0-435.2 64-435.2 179.2v614.4c0 15.36 10.24 25.6 25.6 25.6s25.6-10.24 25.6-25.6v-614.4c0-61.44 163.84-128 384-128s384 66.56 384 128v614.4c0 15.36 10.24 25.6 25.6 25.6s25.6-10.24 25.6-25.6v-614.4c0-115.2-225.28-179.2-435.2-179.2zM512 371.2c-209.92 0-435.2 64-435.2 179.2 0 15.36 10.24 25.6 25.6 25.6s25.6-10.24 25.6-25.6c0-61.44 163.84-128 384-128s384 66.56 384 128c0 15.36 10.24 25.6 25.6 25.6s25.6-10.24 25.6-25.6c0-115.2-225.28-179.2-435.2-179.2zM512 166.4c-209.92 0-435.2 64-435.2 179.2 0 15.36 10.24 25.6 25.6 25.6s25.6-10.24 25.6-25.6c0-61.44 163.84-128 384-128s384 66.56 384 128c0 15.36 10.24 25.6 25.6 25.6s25.6-10.24 25.6-25.6c0-115.2-225.28-179.2-435.2-179.2z" />
<glyph unicode="&#xe91d;" glyph-name="devices" d="M345.6 294.4h-284.16c-33.28 0-61.44 28.16-61.44 61.44v363.52c0 33.28 28.16 61.44 61.44 61.44h568.32c33.28 0 61.44-28.16 61.44-61.44v-117.76c0-15.36-10.24-25.6-25.6-25.6s-25.6 10.24-25.6 25.6v117.76c0 5.12-5.12 10.24-10.24 10.24h-568.32c-5.12 0-10.24-5.12-10.24-10.24v-363.52c0-5.12 5.12-10.24 10.24-10.24h284.16c15.36 0 25.6-10.24 25.6-25.6s-10.24-25.6-25.6-25.6zM563.2 115.2h-435.2c-15.36 0-25.6 10.24-25.6 25.6s10.24 25.6 25.6 25.6h435.2c15.36 0 25.6-10.24 25.6-25.6s-10.24-25.6-25.6-25.6zM204.8 115.2c-15.36 0-25.6 10.24-25.6 25.6v179.2c0 15.36 10.24 25.6 25.6 25.6s25.6-10.24 25.6-25.6v-179.2c0-15.36-10.24-25.6-25.6-25.6zM972.8 115.2h-102.4c-28.16 0-51.2 23.040-51.2 53.76v250.88c0 28.16 23.040 53.76 51.2 53.76h102.4c28.16 0 51.2-23.040 51.2-53.76v-250.88c0-30.72-23.040-53.76-51.2-53.76zM870.4 422.4v-253.44l102.4-2.56v256h-102.4zM921.6 115.2h-524.8c-17.92 0-33.28 7.68-43.52 17.92-12.8 12.8-17.92 28.16-17.92 43.52v389.12c0 15.36 7.68 33.28 17.92 43.52 12.8 12.8 28.16 17.92 43.52 17.92h488.96c17.92 0 33.28-7.68 43.52-17.92 12.8-12.8 17.92-28.16 17.92-43.52v-99.84c0-15.36-10.24-25.6-25.6-25.6s-25.6 10.24-25.6 25.6v99.84c0 2.56 0 5.12-2.56 7.68s-5.12 2.56-10.24 2.56h-486.4c-2.56 0-5.12 0-7.68-2.56-5.12-2.56-5.12-5.12-5.12-7.68v-386.56c0-2.56 0-5.12 2.56-7.68s5.12-2.56 7.68-2.56h527.36c15.36 0 25.6-10.24 25.6-25.6s-10.24-28.16-25.6-28.16z" />
<glyph unicode="&#xe91e;" glyph-name="dollar-clipboard" d="M768-38.4h-512c-33.28 0-66.56 12.8-89.6 38.4-25.6 23.040-38.4 56.32-38.4 89.6v614.4c0 33.28 12.8 66.56 38.4 89.6 23.040 25.6 56.32 38.4 89.6 38.4h102.4c15.36 0 25.6-10.24 25.6-25.6s-10.24-25.6-25.6-25.6h-102.4c-20.48 0-40.96-7.68-53.76-23.040-15.36-12.8-23.040-33.28-23.040-53.76v-614.4c0-20.48 7.68-40.96 23.040-53.76 12.8-15.36 33.28-23.040 53.76-23.040h512c20.48 0 40.96 7.68 53.76 23.040s23.040 33.28 23.040 53.76v614.4c0 20.48-7.68 40.96-23.040 53.76-12.8 15.36-33.28 23.040-53.76 23.040h-102.4c-15.36 0-25.6 10.24-25.6 25.6s10.24 25.6 25.6 25.6h102.4c33.28 0 66.56-12.8 89.6-38.4 25.6-23.040 38.4-56.32 38.4-89.6v-614.4c0-33.28-12.8-66.56-38.4-89.6s-56.32-38.4-89.6-38.4zM588.8 704h-153.6c-56.32 0-102.4 46.080-102.4 102.4s46.080 102.4 102.4 102.4h153.6c56.32 0 102.4-46.080 102.4-102.4s-46.080-102.4-102.4-102.4zM435.2 857.6c-28.16 0-51.2-23.040-51.2-51.2s23.040-51.2 51.2-51.2h153.6c28.16 0 51.2 23.040 51.2 51.2s-23.040 51.2-51.2 51.2h-153.6zM537.6 166.4h-128c-15.36 0-25.6 10.24-25.6 25.6s10.24 25.6 25.6 25.6h128c12.8 0 25.6 5.12 35.84 15.36s15.36 23.040 15.36 35.84-5.12 25.6-15.36 35.84-23.040 15.36-35.84 15.36h-51.2c-28.16 0-53.76 10.24-71.68 30.72-20.48 17.92-30.72 43.52-30.72 71.68s10.24 53.76 30.72 71.68c20.48 20.48 46.080 30.72 71.68 30.72h128c15.36 0 25.6-10.24 25.6-25.6s-10.24-25.6-25.6-25.6h-128c-12.8 0-25.6-5.12-35.84-15.36s-15.36-23.040-15.36-35.84 5.12-25.6 15.36-35.84c10.24-10.24 23.040-15.36 35.84-15.36h51.2c28.16 0 53.76-10.24 71.68-30.72s30.72-43.52 30.72-71.68-10.24-53.76-30.72-71.68-43.52-30.72-71.68-30.72zM512 115.2c-15.36 0-25.6 10.24-25.6 25.6v51.2c0 15.36 10.24 25.6 25.6 25.6s25.6-10.24 25.6-25.6v-51.2c0-15.36-10.24-25.6-25.6-25.6zM512 473.6c-15.36 0-25.6 10.24-25.6 25.6v51.2c0 15.36 10.24 25.6 25.6 25.6s25.6-10.24 25.6-25.6v-51.2c0-15.36-10.24-25.6-25.6-25.6z" />
<glyph unicode="&#xe91f;" glyph-name="donut-chart" d="M179.2 140.8c-7.68 0-15.36 2.56-20.48 10.24-10.24 10.24-7.68 28.16 2.56 35.84l171.52 145.92c10.24 10.24 28.16 7.68 35.84-2.56 10.24-10.24 7.68-28.16-2.56-35.84l-171.52-145.92c-2.56-5.12-10.24-7.68-15.36-7.68zM972.8 422.4h-256c-15.36 0-25.6 10.24-25.6 25.6s10.24 25.6 25.6 25.6h256c15.36 0 25.6-10.24 25.6-25.6s-10.24-25.6-25.6-25.6zM512 627.2c-15.36 0-25.6 10.24-25.6 25.6v256c0 15.36 10.24 25.6 25.6 25.6s25.6-10.24 25.6-25.6v-256c0-15.36-10.24-25.6-25.6-25.6zM512-38.4c-268.8 0-486.4 217.6-486.4 486.4s217.6 486.4 486.4 486.4 486.4-217.6 486.4-486.4-217.6-486.4-486.4-486.4zM512 883.2c-240.64 0-435.2-194.56-435.2-435.2s194.56-435.2 435.2-435.2 435.2 194.56 435.2 435.2-194.56 435.2-435.2 435.2zM768 38.4c-7.68 0-15.36 5.12-20.48 10.24l-143.36 212.48c-7.68 12.8-5.12 28.16 7.68 35.84s28.16 5.12 35.84-7.68l143.36-212.48c7.68-12.8 5.12-28.16-7.68-35.84-5.12 0-10.24-2.56-15.36-2.56zM512 217.6c-128 0-230.4 102.4-230.4 230.4s102.4 230.4 230.4 230.4c128 0 230.4-102.4 230.4-230.4s-102.4-230.4-230.4-230.4zM512 627.2c-99.84 0-179.2-79.36-179.2-179.2s79.36-179.2 179.2-179.2c99.84 0 179.2 79.36 179.2 179.2s-79.36 179.2-179.2 179.2z" />
<glyph unicode="&#xe920;" glyph-name="dot-chart-cloud" d="M972.8-38.4h-384c-15.36 0-25.6 10.24-25.6 25.6s10.24 25.6 25.6 25.6h384c15.36 0 25.6-10.24 25.6-25.6s-10.24-25.6-25.6-25.6zM51.2 268.8c-15.36 0-25.6 10.24-25.6 25.6v614.4c0 15.36 10.24 25.6 25.6 25.6s25.6-10.24 25.6-25.6v-614.4c0-15.36-10.24-25.6-25.6-25.6zM358.4 473.6c-71.68 0-128 56.32-128 128s56.32 128 128 128 128-56.32 128-128-56.32-128-128-128zM358.4 678.4c-43.52 0-76.8-33.28-76.8-76.8s33.28-76.8 76.8-76.8 76.8 33.28 76.8 76.8-33.28 76.8-76.8 76.8zM870.4 576c-71.68 0-128 56.32-128 128s56.32 128 128 128 128-56.32 128-128-56.32-128-128-128zM870.4 780.8c-43.52 0-76.8-33.28-76.8-76.8s33.28-76.8 76.8-76.8 76.8 33.28 76.8 76.8-33.28 76.8-76.8 76.8zM614.4 166.4c-71.68 0-128 56.32-128 128s56.32 128 128 128 128-56.32 128-128-56.32-128-128-128zM614.4 371.2c-43.52 0-76.8-33.28-76.8-76.8s33.28-76.8 76.8-76.8 76.8 33.28 76.8 76.8-33.28 76.8-76.8 76.8zM537.6 345.6c-7.68 0-15.36 2.56-20.48 10.24l-120.32 148.48c-7.68 10.24-7.68 28.16 2.56 35.84s28.16 7.68 35.84-2.56l120.32-148.48c7.68-10.24 7.68-28.16-2.56-35.84-5.12-5.12-10.24-7.68-15.36-7.68zM670.72 353.28c-5.12 0-10.24 0-12.8 2.56-12.8 7.68-15.36 23.040-7.68 35.84l143.36 235.52c7.68 12.8 23.040 15.36 35.84 7.68s15.36-23.040 7.68-35.84l-145.92-232.96c-5.12-7.68-12.8-12.8-20.48-12.8zM304.64-38.4h-181.76c-53.76 0-97.28 43.52-97.28 97.28 0 46.080 33.28 84.48 76.8 94.72 20.48 46.080 71.68 74.24 125.44 64 30.72-5.12 56.32-23.040 71.68-46.080 10.24-15.36 15.36-30.72 15.36-46.080 38.4-5.12 66.56-38.4 66.56-79.36 2.56-48.64-33.28-84.48-76.8-84.48zM207.36 166.4c-28.16 0-53.76-17.92-58.88-43.52-2.56-12.8-12.8-20.48-25.6-20.48-25.6 0-46.080-20.48-46.080-46.080s20.48-43.52 46.080-43.52h181.76c15.36 0 28.16 12.8 28.16 28.16s-12.8 28.16-28.16 28.16h-15.36c-7.68 0-15.36 2.56-20.48 10.24-5.12 5.12-7.68 12.8-5.12 20.48 2.56 12.8 0 25.6-7.68 38.4s-23.040 23.040-38.4 25.6c-2.56 2.56-7.68 2.56-10.24 2.56z" />
<glyph unicode="&#xe921;" glyph-name="download" horiz-adv-x="717" d="M358.4 140.8v0 0c0 0 0 0 0 0v0c-5.12 0-15.36 0-20.48 5.12-5.12 0-10.24 5.12-15.36 10.24l-307.2 307.2c-20.48 20.48-20.48 51.2 0 71.68s51.2 20.48 71.68 0l220.16-220.16v593.92c0 30.72 20.48 51.2 51.2 51.2s51.2-20.48 51.2-51.2v-593.92l220.16 220.16c20.48 20.48 51.2 20.48 71.68 0s20.48-51.2 0-71.68l-307.2-307.2c0 0 0 0 0 0s0 0 0 0 0 0 0 0 0 0 0 0v0c-5.12-5.12-10.24-10.24-15.36-10.24-5.12-5.12-15.36-5.12-20.48-5.12v0c0 0 0 0 0 0v0zM665.6-64h-614.4c-30.72 0-51.2 20.48-51.2 51.2s20.48 51.2 51.2 51.2h614.4c30.72 0 51.2-20.48 51.2-51.2s-20.48-51.2-51.2-51.2z" />
<glyph unicode="&#xe922;" glyph-name="facebook" d="M984.381 448c0 260.952-211.427 472.381-472.381 472.381-260.952 0-472.381-211.429-472.381-472.381 0-236.193 171.428-432.382 398.095-466.666v329.523h-120v137.143h120v102.857c0 118.095 70.477 184.762 177.144 184.762 53.331 0 106.667-9.524 106.667-9.524v-116.19h-59.051c-59.046 0-78.092-36.191-78.092-74.285v-87.619h131.428l-20.953-137.143h-110.475v-329.523c226.665 34.284 399.999 230.473 399.999 466.666z" />
<glyph unicode="&#xe923;" glyph-name="filter" d="M739.556 618.667c-96.711 0-170.667 73.956-170.667 170.667s73.956 170.667 170.667 170.667 170.667-73.956 170.667-170.667-73.956-170.667-170.667-170.667zM739.556 846.222c-34.133 0-56.889-22.756-56.889-56.889s22.756-56.889 56.889-56.889 56.889 22.756 56.889 56.889-22.756 56.889-56.889 56.889zM625.778 732.444h-568.889c-34.133 0-56.889 22.756-56.889 56.889s22.756 56.889 56.889 56.889h568.889c34.133 0 56.889-22.756 56.889-56.889s-22.756-56.889-56.889-56.889zM967.111 732.444h-113.778c-34.133 0-56.889 22.756-56.889 56.889s22.756 56.889 56.889 56.889h113.778c34.133 0 56.889-22.756 56.889-56.889s-22.756-56.889-56.889-56.889zM284.444 277.333c-96.711 0-170.667 73.956-170.667 170.667s73.956 170.667 170.667 170.667 170.667-73.956 170.667-170.667-73.956-170.667-170.667-170.667zM284.444 504.889c-34.133 0-56.889-22.756-56.889-56.889s22.756-56.889 56.889-56.889 56.889 22.756 56.889 56.889-22.756 56.889-56.889 56.889zM170.667 391.111h-113.778c-34.133 0-56.889 22.756-56.889 56.889s22.756 56.889 56.889 56.889h113.778c34.133 0 56.889-22.756 56.889-56.889s-22.756-56.889-56.889-56.889zM967.111 391.111h-568.889c-34.133 0-56.889 22.756-56.889 56.889s22.756 56.889 56.889 56.889h568.889c34.133 0 56.889-22.756 56.889-56.889s-22.756-56.889-56.889-56.889zM739.556-64c-96.711 0-170.667 73.956-170.667 170.667s73.956 170.667 170.667 170.667 170.667-73.956 170.667-170.667-73.956-170.667-170.667-170.667zM739.556 163.556c-34.133 0-56.889-22.756-56.889-56.889s22.756-56.889 56.889-56.889 56.889 22.756 56.889 56.889-22.756 56.889-56.889 56.889zM625.778 49.778h-568.889c-34.133 0-56.889 22.756-56.889 56.889s22.756 56.889 56.889 56.889h568.889c34.133 0 56.889-22.756 56.889-56.889s-22.756-56.889-56.889-56.889zM967.111 49.778h-113.778c-34.133 0-56.889 22.756-56.889 56.889s22.756 56.889 56.889 56.889h113.778c34.133 0 56.889-22.756 56.889-56.889s-22.756-56.889-56.889-56.889z" />
<glyph unicode="&#xe924;" glyph-name="flexible" d="M512 396.8c-15.36 0-25.6 10.24-25.6 25.6v460.8c0 15.36 10.24 25.6 25.6 25.6s25.6-10.24 25.6-25.6v-460.8c0-15.36-10.24-25.6-25.6-25.6zM640 729.6c-7.68 0-12.8 2.56-17.92 7.68l-110.080 110.080-110.080-110.080c-10.24-10.24-25.6-10.24-35.84 0s-10.24 25.6 0 35.84l128 128c10.24 10.24 25.6 10.24 35.84 0l128-128c10.24-10.24 10.24-25.6 0-35.84-5.12-5.12-10.24-7.68-17.92-7.68zM844.8 268.8c-7.68 0-12.8 2.56-17.92 7.68-10.24 10.24-10.24 25.6 0 35.84l110.080 110.080-110.080 110.080c-10.24 10.24-10.24 25.6 0 35.84s25.6 10.24 35.84 0l128-128c10.24-10.24 10.24-25.6 0-35.84l-128-128c-5.12-5.12-10.24-7.68-17.92-7.68zM512-12.8c-15.36 0-25.6 10.24-25.6 25.6v51.2c0 102.4 40.96 199.68 112.64 271.36 74.24 71.68 171.52 112.64 273.92 112.64h99.84c15.36 0 25.6-10.24 25.6-25.6s-10.24-25.6-25.6-25.6h-99.84c-89.6 0-174.080-35.84-238.080-97.28-61.44-64-97.28-145.92-97.28-235.52v-51.2c0-15.36-10.24-25.6-25.6-25.6zM179.2 268.8c-7.68 0-12.8 2.56-17.92 7.68l-128 128c-10.24 10.24-10.24 25.6 0 35.84l128 128c10.24 10.24 25.6 10.24 35.84 0s10.24-25.6 0-35.84l-110.080-110.080 110.080-110.080c10.24-10.24 10.24-25.6 0-35.84-5.12-5.12-10.24-7.68-17.92-7.68zM407.040 291.84c-7.68 0-12.8 2.56-17.92 7.68-64 61.44-148.48 97.28-238.080 97.28h-99.84c-15.36 0-25.6 10.24-25.6 25.6s10.24 25.6 25.6 25.6h99.84c102.4 0 199.68-40.96 273.92-112.64 10.24-10.24 10.24-25.6 0-35.84-5.12-5.12-12.8-7.68-17.92-7.68z" />
<glyph unicode="&#xe925;" glyph-name="gear-" d="M512-38.4c-53.76 0-97.28 35.84-110.080 87.040-2.56 10.24-7.68 17.92-12.8 25.6s-15.36 12.8-23.040 17.92c-10.24 2.56-17.92 5.12-28.16 5.12s-20.48-5.12-28.16-10.24c-46.080-28.16-102.4-20.48-140.8 17.92s-46.080 92.16-17.92 138.24c5.12 7.68 7.68 17.92 7.68 28.16s0 20.48-5.12 28.16c-2.56 10.24-10.24 17.92-17.92 23.040s-15.36 10.24-25.6 12.8c-48.64 15.36-84.48 58.88-84.48 112.64s35.84 97.28 87.040 110.080c10.24 2.56 17.92 7.68 25.6 12.8s12.8 15.36 17.92 23.040c2.56 10.24 5.12 17.92 5.12 28.16s-5.12 20.48-10.24 28.16c-28.16 46.080-20.48 102.4 17.92 140.8 35.84 38.4 92.16 46.080 138.24 17.92 17.92-10.24 38.4-12.8 56.32-5.12s33.28 23.040 35.84 43.52c15.36 51.2 58.88 87.040 112.64 87.040v0c53.76 0 97.28-35.84 110.080-87.040 2.56-10.24 7.68-17.92 12.8-25.6s15.36-12.8 23.040-17.92c10.24-2.56 17.92-5.12 28.16-5.12s20.48 5.12 28.16 10.24c46.080 28.16 102.4 20.48 140.8-17.92s43.52-94.72 17.92-140.8c-5.12-7.68-7.68-17.92-10.24-28.16 0-10.24 0-20.48 5.12-28.16 2.56-10.24 10.24-17.92 17.92-23.040s15.36-10.24 25.6-12.8c51.2-12.8 87.040-56.32 87.040-110.080s-35.84-97.28-87.040-110.080c-10.24-2.56-17.92-7.68-25.6-12.8s-12.8-15.36-17.92-23.040c-2.56-10.24-5.12-17.92-5.12-28.16s5.12-20.48 10.24-28.16c28.16-46.080 20.48-102.4-17.92-140.8s-94.72-43.52-140.8-17.92c-7.68 5.12-17.92 7.68-28.16 10.24-10.24 0-20.48 0-28.16-5.12-10.24-2.56-17.92-10.24-23.040-17.92s-10.24-15.36-12.8-25.6c-12.8-51.2-56.32-87.040-110.080-87.040zM340.48 148.48c15.36 0 30.72-2.56 43.52-7.68 15.36-7.68 30.72-17.92 43.52-30.72s20.48-30.72 23.040-46.080c10.24-38.4 38.4-51.2 61.44-51.2s51.2 12.8 61.44 48.64c5.12 17.92 12.8 33.28 23.040 46.080 12.8 12.8 25.6 23.040 43.52 30.72 15.36 7.68 35.84 10.24 51.2 7.68 17.92-2.56 35.84-7.68 51.2-15.36 30.72-17.92 61.44-7.68 76.8 10.24 15.36 15.36 28.16 46.080 10.24 76.8-10.24 15.36-15.36 33.28-15.36 51.2-2.56 17.92 2.56 35.84 7.68 51.2 7.68 15.36 17.92 30.72 30.72 43.52s30.72 20.48 46.080 23.040c35.84 10.24 48.64 38.4 48.64 61.44s-12.8 51.2-48.64 61.44c-17.92 5.12-33.28 12.8-46.080 23.040-12.8 12.8-25.6 25.6-30.72 43.52-7.68 15.36-10.24 33.28-7.68 51.2s7.68 35.84 15.36 51.2c17.92 30.72 7.68 61.44-10.24 76.8s-46.080 28.16-76.8 10.24c-15.36-10.24-33.28-15.36-51.2-15.36-17.92-2.56-35.84 2.56-51.2 7.68-15.36 7.68-30.72 17.92-43.52 30.72s-20.48 30.72-23.040 46.080c-10.24 35.84-38.4 48.64-61.44 48.64v0c-23.040 0-51.2-12.8-61.44-48.64 0 0 0 0 0 0-7.68-35.84-33.28-64-66.56-79.36s-71.68-10.24-102.4 7.68c-30.72 20.48-61.44 7.68-76.8-7.68s-28.16-46.080-10.24-76.8c10.24-15.36 15.36-33.28 15.36-51.2 2.56-17.92-2.56-35.84-7.68-51.2-7.68-15.36-17.92-30.72-30.72-43.52s-30.72-20.48-46.080-23.040c-35.84-10.24-48.64-38.4-48.64-61.44s12.8-51.2 48.64-61.44c17.92-5.12 33.28-12.8 46.080-23.040 12.8-12.8 23.040-25.6 30.72-43.52 7.68-15.36 10.24-35.84 7.68-51.2-2.56-17.92-7.68-35.84-15.36-51.2-17.92-30.72-7.68-61.44 10.24-76.8 15.36-15.36 46.080-28.16 76.8-10.24 15.36 10.24 33.28 15.36 51.2 15.36 2.56 2.56 5.12 2.56 7.68 2.56zM424.96 842.24v0 0zM537.6 268.8h-128c-15.36 0-25.6 10.24-25.6 25.6s10.24 25.6 25.6 25.6h128c12.8 0 25.6 5.12 35.84 15.36s15.36 23.040 15.36 35.84-5.12 25.6-15.36 35.84-23.040 15.36-35.84 15.36h-51.2c-28.16 0-53.76 10.24-71.68 30.72-20.48 17.92-30.72 43.52-30.72 71.68s10.24 53.76 30.72 71.68c20.48 20.48 46.080 30.72 71.68 30.72h128c15.36 0 25.6-10.24 25.6-25.6s-10.24-25.6-25.6-25.6h-128c-12.8 0-25.6-5.12-35.84-15.36s-15.36-23.040-15.36-35.84 5.12-25.6 15.36-35.84c10.24-10.24 23.040-15.36 35.84-15.36h51.2c28.16 0 53.76-10.24 71.68-30.72 20.48-20.48 30.72-46.080 30.72-71.68s-10.24-53.76-30.72-71.68-43.52-30.72-71.68-30.72zM512 217.6c-15.36 0-25.6 10.24-25.6 25.6v51.2c0 15.36 10.24 25.6 25.6 25.6s25.6-10.24 25.6-25.6v-51.2c0-15.36-10.24-25.6-25.6-25.6zM512 576c-15.36 0-25.6 10.24-25.6 25.6v51.2c0 15.36 10.24 25.6 25.6 25.6s25.6-10.24 25.6-25.6v-51.2c0-15.36-10.24-25.6-25.6-25.6z" />
<glyph unicode="&#xe926;" glyph-name="gear-cloud" d="M611.84 345.6h-181.76c-25.6 0-51.2 10.24-69.12 28.16s-28.16 43.52-28.16 69.12c0 25.6 10.24 51.2 28.16 69.12 12.8 12.8 30.72 23.040 48.64 25.6 7.68 20.48 23.040 35.84 40.96 48.64 12.8 7.68 25.6 12.8 38.4 15.36 15.36 2.56 28.16 2.56 43.52 0s28.16-7.68 38.4-15.36c12.8-7.68 23.040-17.92 30.72-28.16 7.68-12.8 12.8-25.6 17.92-38.4 0-2.56 2.56-7.68 2.56-10.24 17.92-2.56 33.28-10.24 43.52-23.040 15.36-15.36 23.040-35.84 23.040-56.32s-7.68-40.96-23.040-56.32c-12.8-20.48-33.28-28.16-53.76-28.16zM514.56 550.4c-5.12 0-7.68 0-12.8 0-7.68-2.56-15.36-5.12-23.040-7.68-12.8-7.68-23.040-20.48-25.6-33.28s-12.8-20.48-25.6-20.48c-12.8 0-23.040-5.12-33.28-12.8-7.68-7.68-12.8-20.48-12.8-30.72s5.12-23.040 12.8-30.72c7.68-7.68 20.48-12.8 33.28-12.8h181.76c7.68 0 12.8 2.56 20.48 7.68 5.12 5.12 7.68 12.8 7.68 20.48s-2.56 15.36-7.68 20.48c-5.12 5.12-12.8 7.68-20.48 7.68h-15.36c-7.68 0-15.36 2.56-20.48 10.24-5.12 5.12-7.68 12.8-5.12 20.48s2.56 12.8 0 20.48c-2.56 7.68-5.12 12.8-7.68 17.92-5.12 5.12-10.24 10.24-15.36 15.36-7.68 5.12-12.8 7.68-23.040 7.68 0 0-5.12 0-7.68 0zM512-38.4c-53.76 0-97.28 35.84-110.080 87.040-2.56 10.24-7.68 17.92-12.8 25.6s-15.36 12.8-23.040 17.92c-10.24 2.56-17.92 5.12-28.16 5.12s-20.48-5.12-28.16-10.24c-46.080-28.16-102.4-20.48-140.8 17.92s-46.080 92.16-17.92 138.24c5.12 7.68 7.68 17.92 7.68 28.16s0 20.48-5.12 28.16c-2.56 10.24-10.24 17.92-17.92 23.040s-15.36 10.24-25.6 12.8c-48.64 15.36-84.48 58.88-84.48 112.64s35.84 97.28 87.040 110.080c10.24 2.56 17.92 7.68 25.6 12.8s12.8 15.36 17.92 23.040c2.56 10.24 5.12 17.92 5.12 28.16s-5.12 20.48-10.24 28.16c-28.16 46.080-20.48 102.4 17.92 140.8 35.84 38.4 92.16 46.080 138.24 17.92 17.92-10.24 38.4-12.8 56.32-5.12s33.28 23.040 35.84 43.52c15.36 51.2 58.88 87.040 112.64 87.040v0c53.76 0 97.28-35.84 110.080-87.040 2.56-10.24 7.68-17.92 12.8-25.6s15.36-12.8 23.040-17.92c10.24-2.56 17.92-5.12 28.16-5.12s20.48 5.12 28.16 10.24c46.080 28.16 102.4 20.48 140.8-17.92s43.52-94.72 17.92-140.8c-5.12-7.68-7.68-17.92-10.24-28.16 0-10.24 0-20.48 5.12-28.16 2.56-10.24 10.24-17.92 17.92-23.040s15.36-10.24 25.6-12.8c51.2-12.8 87.040-56.32 87.040-110.080s-35.84-97.28-87.040-110.080c-10.24-2.56-17.92-7.68-25.6-12.8s-12.8-15.36-17.92-23.040c-2.56-10.24-5.12-17.92-5.12-28.16s5.12-20.48 10.24-28.16c28.16-46.080 20.48-102.4-17.92-140.8s-94.72-43.52-140.8-17.92c-7.68 5.12-17.92 7.68-28.16 10.24-10.24 0-20.48 0-28.16-5.12-10.24-2.56-17.92-10.24-23.040-17.92s-10.24-15.36-12.8-25.6c-12.8-51.2-56.32-87.040-110.080-87.040zM340.48 148.48c15.36 0 30.72-2.56 43.52-7.68 15.36-7.68 30.72-17.92 43.52-30.72s20.48-30.72 23.040-46.080c10.24-38.4 38.4-51.2 61.44-51.2s51.2 12.8 61.44 48.64c5.12 17.92 12.8 33.28 23.040 46.080 12.8 12.8 25.6 23.040 43.52 30.72 15.36 7.68 35.84 10.24 51.2 7.68 17.92-2.56 35.84-7.68 51.2-15.36 30.72-17.92 61.44-7.68 76.8 10.24 15.36 15.36 28.16 46.080 10.24 76.8-10.24 15.36-15.36 33.28-15.36 51.2-2.56 17.92 2.56 35.84 7.68 51.2 7.68 15.36 17.92 30.72 30.72 43.52s30.72 20.48 46.080 23.040c35.84 10.24 48.64 38.4 48.64 61.44s-12.8 51.2-48.64 61.44c-17.92 5.12-33.28 12.8-46.080 23.040-12.8 12.8-25.6 25.6-30.72 43.52-7.68 15.36-10.24 33.28-7.68 51.2s7.68 35.84 15.36 51.2c17.92 30.72 7.68 61.44-10.24 76.8s-46.080 28.16-76.8 10.24c-15.36-10.24-33.28-15.36-51.2-15.36-17.92-2.56-35.84 2.56-51.2 7.68-15.36 7.68-30.72 17.92-43.52 30.72s-20.48 30.72-23.040 46.080c-10.24 35.84-38.4 48.64-61.44 48.64v0c-23.040 0-51.2-12.8-61.44-48.64 0 0 0 0 0 0-7.68-35.84-33.28-64-66.56-79.36s-71.68-10.24-102.4 7.68c-30.72 20.48-61.44 7.68-76.8-7.68s-28.16-46.080-10.24-76.8c10.24-15.36 15.36-33.28 15.36-51.2 2.56-17.92-2.56-35.84-7.68-51.2-7.68-15.36-17.92-30.72-30.72-43.52s-30.72-20.48-46.080-23.040c-35.84-10.24-48.64-38.4-48.64-61.44s12.8-51.2 48.64-61.44c17.92-5.12 33.28-12.8 46.080-23.040 12.8-12.8 23.040-25.6 30.72-43.52 7.68-15.36 10.24-35.84 7.68-51.2-2.56-17.92-7.68-35.84-15.36-51.2-17.92-30.72-7.68-61.44 10.24-76.8 15.36-15.36 46.080-28.16 76.8-10.24 15.36 10.24 33.28 15.36 51.2 15.36 2.56 2.56 5.12 2.56 7.68 2.56zM424.96 842.24v0 0z" />
<glyph unicode="&#xe927;" glyph-name="gear-code" d="M512-38.4c-53.76 0-97.28 35.84-110.080 87.040-2.56 10.24-7.68 17.92-12.8 25.6s-15.36 12.8-23.040 17.92c-10.24 2.56-17.92 5.12-28.16 5.12s-20.48-5.12-28.16-10.24c-46.080-28.16-102.4-20.48-140.8 17.92s-46.080 92.16-17.92 138.24c5.12 7.68 7.68 17.92 7.68 28.16s0 20.48-5.12 28.16c-2.56 10.24-10.24 17.92-17.92 23.040s-15.36 10.24-25.6 12.8c-48.64 15.36-84.48 58.88-84.48 112.64s35.84 97.28 87.040 110.080c10.24 2.56 17.92 7.68 25.6 12.8s12.8 15.36 17.92 23.040c2.56 10.24 5.12 17.92 5.12 28.16s-5.12 20.48-10.24 28.16c-28.16 46.080-20.48 102.4 17.92 140.8 35.84 38.4 92.16 46.080 138.24 17.92 17.92-10.24 38.4-12.8 56.32-5.12s33.28 23.040 35.84 43.52c15.36 51.2 58.88 87.040 112.64 87.040v0c53.76 0 97.28-35.84 110.080-87.040 2.56-10.24 7.68-17.92 12.8-25.6s15.36-12.8 23.040-17.92c10.24-2.56 17.92-5.12 28.16-5.12s20.48 5.12 28.16 10.24c46.080 28.16 102.4 20.48 140.8-17.92s43.52-94.72 17.92-140.8c-5.12-7.68-7.68-17.92-10.24-28.16 0-10.24 0-20.48 5.12-28.16 5.12-12.8 0-28.16-12.8-33.28s-28.16 0-33.28 12.8c-7.68 15.36-10.24 35.84-7.68 51.2 2.56 17.92 7.68 35.84 15.36 51.2 17.92 30.72 7.68 61.44-10.24 76.8s-46.080 28.16-76.8 10.24c-15.36-10.24-33.28-15.36-51.2-15.36-17.92-2.56-35.84 2.56-51.2 7.68-15.36 7.68-30.72 17.92-43.52 30.72s-20.48 30.72-23.040 46.080c-10.24 38.4-38.4 51.2-61.44 51.2v0c-23.040 0-51.2-12.8-61.44-48.64-7.68-35.84-33.28-64-66.56-79.36s-71.68-10.24-102.4 7.68c-30.72 20.48-61.44 7.68-76.8-7.68s-28.16-46.080-10.24-76.8c10.24-15.36 15.36-33.28 15.36-51.2 2.56-17.92-2.56-35.84-7.68-51.2-7.68-15.36-17.92-30.72-30.72-43.52s-30.72-20.48-46.080-23.040c-35.84-10.24-48.64-38.4-48.64-61.44s12.8-51.2 48.64-61.44c17.92-5.12 33.28-12.8 46.080-23.040 12.8-12.8 23.040-25.6 30.72-43.52 7.68-15.36 10.24-35.84 7.68-51.2-2.56-17.92-7.68-35.84-15.36-51.2-17.92-30.72-7.68-61.44 10.24-76.8 15.36-15.36 46.080-28.16 76.8-10.24 15.36 10.24 33.28 15.36 51.2 15.36 17.92 2.56 35.84-2.56 51.2-7.68 15.36-7.68 30.72-17.92 43.52-30.72s20.48-30.72 23.040-46.080c10.24-35.84 38.4-48.64 61.44-48.64s51.2 12.8 61.44 48.64c5.12 17.92 12.8 33.28 23.040 46.080 12.8 12.8 25.6 23.040 43.52 30.72 15.36 7.68 35.84 10.24 51.2 7.68 17.92-2.56 35.84-7.68 51.2-15.36 30.72-17.92 61.44-7.68 76.8 10.24 15.36 15.36 28.16 46.080 10.24 76.8-10.24 15.36-15.36 33.28-15.36 51.2-2.56 17.92 2.56 35.84 7.68 51.2 5.12 12.8 20.48 20.48 33.28 12.8 12.8-5.12 20.48-20.48 12.8-33.28-2.56-10.24-5.12-17.92-5.12-28.16s5.12-20.48 10.24-28.16c28.16-46.080 20.48-102.4-17.92-140.8s-94.72-43.52-140.8-17.92c-7.68 5.12-17.92 7.68-28.16 10.24-10.24 0-20.48 0-28.16-5.12-10.24-2.56-17.92-10.24-23.040-17.92s-10.24-15.36-12.8-25.6c-12.8-48.64-56.32-84.48-110.080-84.48zM921.6 371.2c-43.52 0-76.8 33.28-76.8 76.8s33.28 76.8 76.8 76.8 76.8-33.28 76.8-76.8-33.28-76.8-76.8-76.8zM921.6 473.6c-15.36 0-25.6-10.24-25.6-25.6s10.24-25.6 25.6-25.6 25.6 10.24 25.6 25.6-10.24 25.6-25.6 25.6zM358.4 345.6c-7.68 0-12.8 2.56-17.92 7.68l-76.8 76.8c-10.24 10.24-10.24 25.6 0 35.84l76.8 76.8c10.24 10.24 25.6 10.24 35.84 0s10.24-25.6 0-35.84l-58.88-58.88 58.88-58.88c10.24-10.24 10.24-25.6 0-35.84-5.12-5.12-10.24-7.68-17.92-7.68zM665.6 345.6c-7.68 0-12.8 2.56-17.92 7.68-10.24 10.24-10.24 25.6 0 35.84l58.88 58.88-58.88 58.88c-10.24 10.24-10.24 25.6 0 35.84s25.6 10.24 35.84 0l76.8-76.8c10.24-10.24 10.24-25.6 0-35.84l-76.8-76.8c-5.12-5.12-10.24-7.68-17.92-7.68zM460.8 268.8c-2.56 0-5.12 0-7.68 2.56-12.8 5.12-20.48 17.92-15.36 33.28l102.4 307.2c5.12 12.8 17.92 20.48 33.28 15.36 12.8-5.12 20.48-17.92 15.36-33.28l-102.4-307.2c-5.12-10.24-15.36-17.92-25.6-17.92z" />
<glyph unicode="&#xe928;" glyph-name="gear-web" d="M512-38.4c-53.76 0-97.28 35.84-110.080 87.040-2.56 10.24-7.68 17.92-12.8 25.6s-15.36 12.8-23.040 17.92c-10.24 2.56-17.92 5.12-28.16 5.12s-20.48-5.12-28.16-10.24c-46.080-28.16-102.4-20.48-140.8 17.92s-46.080 92.16-17.92 138.24c5.12 7.68 7.68 17.92 7.68 28.16s0 20.48-5.12 28.16c-2.56 10.24-10.24 17.92-17.92 23.040s-15.36 10.24-25.6 12.8c-48.64 15.36-84.48 58.88-84.48 112.64s35.84 97.28 87.040 110.080c10.24 2.56 17.92 7.68 25.6 12.8s12.8 15.36 17.92 23.040c2.56 10.24 5.12 17.92 5.12 28.16s-5.12 20.48-10.24 28.16c-28.16 46.080-20.48 102.4 17.92 140.8 35.84 38.4 92.16 46.080 138.24 17.92 17.92-10.24 38.4-12.8 56.32-5.12s33.28 23.040 35.84 43.52c15.36 51.2 58.88 87.040 112.64 87.040v0c53.76 0 97.28-35.84 110.080-87.040 2.56-12.8-5.12-28.16-17.92-30.72s-28.16 5.12-30.72 17.92c-10.24 35.84-38.4 48.64-61.44 48.64v0c-23.040 0-51.2-12.8-61.44-48.64-7.68-35.84-33.28-64-66.56-79.36s-71.68-10.24-102.4 7.68c-30.72 20.48-61.44 7.68-76.8-7.68s-28.16-46.080-10.24-76.8c10.24-15.36 15.36-33.28 15.36-51.2 2.56-17.92-2.56-35.84-7.68-51.2-7.68-15.36-17.92-30.72-30.72-43.52s-30.72-20.48-46.080-23.040c-35.84-10.24-48.64-38.4-48.64-61.44s12.8-51.2 48.64-61.44c17.92-5.12 33.28-12.8 46.080-23.040 12.8-12.8 23.040-25.6 30.72-43.52 7.68-15.36 10.24-35.84 7.68-51.2-2.56-17.92-7.68-35.84-15.36-51.2-17.92-30.72-7.68-61.44 10.24-76.8 15.36-15.36 46.080-28.16 76.8-10.24 15.36 10.24 33.28 15.36 51.2 15.36 17.92 2.56 35.84-2.56 51.2-7.68 15.36-7.68 30.72-17.92 43.52-30.72s20.48-30.72 23.040-46.080c10.24-35.84 38.4-48.64 61.44-48.64s51.2 12.8 61.44 48.64c2.56 12.8 17.92 23.040 30.72 17.92 12.8-2.56 23.040-17.92 17.92-30.72-12.8-51.2-56.32-87.040-110.080-87.040zM921.6 371.2c-43.52 0-76.8 33.28-76.8 76.8s33.28 76.8 76.8 76.8 76.8-33.28 76.8-76.8-33.28-76.8-76.8-76.8zM921.6 473.6c-15.36 0-25.6-10.24-25.6-25.6s10.24-25.6 25.6-25.6 25.6 10.24 25.6 25.6-10.24 25.6-25.6 25.6zM870.4 422.4h-358.4c-15.36 0-25.6 10.24-25.6 25.6s10.24 25.6 25.6 25.6h358.4c15.36 0 25.6-10.24 25.6-25.6s-10.24-25.6-25.6-25.6zM716.8 217.6c-7.68 0-12.8 2.56-17.92 7.68l-43.52 43.52h-143.36c-99.84 0-179.2 79.36-179.2 179.2s79.36 179.2 179.2 179.2h143.36l43.52 43.52c10.24 10.24 25.6 10.24 35.84 0s10.24-25.6 0-35.84l-51.2-51.2c-5.12-5.12-10.24-7.68-17.92-7.68h-153.6c-71.68 0-128-56.32-128-128s56.32-128 128-128h153.6c7.68 0 12.8-2.56 17.92-7.68l51.2-51.2c10.24-10.24 10.24-25.6 0-35.84-5.12-5.12-10.24-7.68-17.92-7.68zM768 627.2c-43.52 0-76.8 33.28-76.8 76.8s33.28 76.8 76.8 76.8 76.8-33.28 76.8-76.8-33.28-76.8-76.8-76.8zM768 729.6c-15.36 0-25.6-10.24-25.6-25.6s10.24-25.6 25.6-25.6 25.6 10.24 25.6 25.6-10.24 25.6-25.6 25.6zM768 115.2c-43.52 0-76.8 33.28-76.8 76.8s33.28 76.8 76.8 76.8 76.8-33.28 76.8-76.8-33.28-76.8-76.8-76.8zM768 217.6c-15.36 0-25.6-10.24-25.6-25.6s10.24-25.6 25.6-25.6 25.6 10.24 25.6 25.6-10.24 25.6-25.6 25.6z" />
<glyph unicode="&#xe929;" glyph-name="gear" d="M512-38.4c-53.76 0-97.28 35.84-110.080 87.040-2.56 10.24-7.68 17.92-12.8 25.6s-15.36 12.8-23.040 17.92c-10.24 2.56-17.92 5.12-28.16 5.12s-20.48-5.12-28.16-10.24c-46.080-28.16-102.4-20.48-140.8 17.92s-46.080 92.16-17.92 138.24c5.12 7.68 7.68 17.92 7.68 28.16s0 20.48-5.12 28.16c-2.56 10.24-10.24 17.92-17.92 23.040s-15.36 10.24-25.6 12.8c-48.64 15.36-84.48 58.88-84.48 112.64s35.84 97.28 87.040 110.080c10.24 2.56 17.92 7.68 25.6 12.8s12.8 15.36 17.92 23.040c2.56 10.24 5.12 17.92 5.12 28.16s-5.12 20.48-10.24 28.16c-28.16 46.080-20.48 102.4 17.92 140.8 35.84 38.4 92.16 46.080 138.24 17.92 17.92-10.24 38.4-12.8 56.32-5.12s33.28 23.040 35.84 43.52c15.36 51.2 58.88 87.040 112.64 87.040v0c53.76 0 97.28-35.84 110.080-87.040 2.56-10.24 7.68-17.92 12.8-25.6s15.36-12.8 23.040-17.92c10.24-2.56 17.92-5.12 28.16-5.12s20.48 5.12 28.16 10.24c46.080 28.16 102.4 20.48 140.8-17.92s43.52-94.72 17.92-140.8c-5.12-7.68-7.68-17.92-10.24-28.16 0-10.24 0-20.48 5.12-28.16 2.56-10.24 10.24-17.92 17.92-23.040s15.36-10.24 25.6-12.8c51.2-12.8 87.040-56.32 87.040-110.080s-35.84-97.28-87.040-110.080c-10.24-2.56-17.92-7.68-25.6-12.8s-12.8-15.36-17.92-23.040c-2.56-10.24-5.12-17.92-5.12-28.16s5.12-20.48 10.24-28.16c28.16-46.080 20.48-102.4-17.92-140.8s-94.72-43.52-140.8-17.92c-7.68 5.12-17.92 7.68-28.16 10.24-10.24 0-20.48 0-28.16-5.12-10.24-2.56-17.92-10.24-23.040-17.92s-10.24-15.36-12.8-25.6c-12.8-51.2-56.32-87.040-110.080-87.040zM340.48 148.48c15.36 0 30.72-2.56 43.52-7.68 15.36-7.68 30.72-17.92 43.52-30.72s20.48-30.72 23.040-46.080c10.24-38.4 38.4-51.2 61.44-51.2s51.2 12.8 61.44 48.64c5.12 17.92 12.8 33.28 23.040 46.080 12.8 12.8 25.6 23.040 43.52 30.72 15.36 7.68 35.84 10.24 51.2 7.68 17.92-2.56 35.84-7.68 51.2-15.36 30.72-17.92 61.44-7.68 76.8 10.24 15.36 15.36 28.16 46.080 10.24 76.8-10.24 15.36-15.36 33.28-15.36 51.2-2.56 17.92 2.56 35.84 7.68 51.2 7.68 15.36 17.92 30.72 30.72 43.52s30.72 20.48 46.080 23.040c35.84 10.24 48.64 38.4 48.64 61.44s-12.8 51.2-48.64 61.44c-17.92 5.12-33.28 12.8-46.080 23.040-12.8 12.8-25.6 25.6-30.72 43.52-7.68 15.36-10.24 33.28-7.68 51.2s7.68 35.84 15.36 51.2c17.92 30.72 7.68 61.44-10.24 76.8s-46.080 28.16-76.8 10.24c-15.36-10.24-33.28-15.36-51.2-15.36-17.92-2.56-35.84 2.56-51.2 7.68-15.36 7.68-30.72 17.92-43.52 30.72s-20.48 30.72-23.040 46.080c-10.24 35.84-38.4 48.64-61.44 48.64v0c-23.040 0-51.2-12.8-61.44-48.64 0 0 0 0 0 0-7.68-35.84-33.28-64-66.56-79.36s-71.68-10.24-102.4 7.68c-30.72 20.48-61.44 7.68-76.8-7.68s-28.16-46.080-10.24-76.8c10.24-15.36 15.36-33.28 15.36-51.2 2.56-17.92-2.56-35.84-7.68-51.2-7.68-15.36-17.92-30.72-30.72-43.52s-30.72-20.48-46.080-23.040c-35.84-10.24-48.64-38.4-48.64-61.44s12.8-51.2 48.64-61.44c17.92-5.12 33.28-12.8 46.080-23.040 12.8-12.8 23.040-25.6 30.72-43.52 7.68-15.36 10.24-35.84 7.68-51.2-2.56-17.92-7.68-35.84-15.36-51.2-17.92-30.72-7.68-61.44 10.24-76.8 15.36-15.36 46.080-28.16 76.8-10.24 15.36 10.24 33.28 15.36 51.2 15.36 2.56 2.56 5.12 2.56 7.68 2.56zM424.96 842.24v0 0zM512 268.8c-99.84 0-179.2 79.36-179.2 179.2s79.36 179.2 179.2 179.2c99.84 0 179.2-79.36 179.2-179.2s-79.36-179.2-179.2-179.2zM512 576c-71.68 0-128-56.32-128-128s56.32-128 128-128 128 56.32 128 128-56.32 128-128 128z" />
<glyph unicode="&#xe92a;" glyph-name="it-tech" d="M665.6 217.6h-307.2c-43.52 0-76.8 33.28-76.8 76.8v307.2c0 43.52 33.28 76.8 76.8 76.8h307.2c43.52 0 76.8-33.28 76.8-76.8v-307.2c0-43.52-33.28-76.8-76.8-76.8zM358.4 627.2c-15.36 0-25.6-10.24-25.6-25.6v-307.2c0-15.36 10.24-25.6 25.6-25.6h307.2c15.36 0 25.6 10.24 25.6 25.6v307.2c0 15.36-10.24 25.6-25.6 25.6h-307.2zM588.8 627.2c-15.36 0-25.6 10.24-25.6 25.6v153.6c0 15.36 10.24 25.6 25.6 25.6s25.6-10.24 25.6-25.6v-153.6c0-15.36-10.24-25.6-25.6-25.6zM435.2 627.2c-15.36 0-25.6 10.24-25.6 25.6v76.8h-128c-15.36 0-25.6 10.24-25.6 25.6s10.24 25.6 25.6 25.6h153.6c15.36 0 25.6-10.24 25.6-25.6v-102.4c0-15.36-10.24-25.6-25.6-25.6zM588.8 806.4c-43.52 0-76.8 33.28-76.8 76.8s33.28 76.8 76.8 76.8 76.8-33.28 76.8-76.8-33.28-76.8-76.8-76.8zM588.8 908.8c-15.36 0-25.6-10.24-25.6-25.6s10.24-25.6 25.6-25.6 25.6 10.24 25.6 25.6-10.24 25.6-25.6 25.6zM230.4 678.4c-43.52 0-76.8 33.28-76.8 76.8s33.28 76.8 76.8 76.8 76.8-33.28 76.8-76.8-33.28-76.8-76.8-76.8zM230.4 780.8c-15.36 0-25.6-10.24-25.6-25.6s10.24-25.6 25.6-25.6 25.6 10.24 25.6 25.6-10.24 25.6-25.6 25.6zM307.2 499.2h-153.6c-15.36 0-25.6 10.24-25.6 25.6s10.24 25.6 25.6 25.6h153.6c15.36 0 25.6-10.24 25.6-25.6s-10.24-25.6-25.6-25.6zM204.8 192c-15.36 0-25.6 10.24-25.6 25.6v153.6c0 15.36 10.24 25.6 25.6 25.6h102.4c15.36 0 25.6-10.24 25.6-25.6s-10.24-25.6-25.6-25.6h-76.8v-128c0-15.36-10.24-25.6-25.6-25.6zM76.8 448c-43.52 0-76.8 33.28-76.8 76.8s33.28 76.8 76.8 76.8 76.8-33.28 76.8-76.8-33.28-76.8-76.8-76.8zM76.8 550.4c-15.36 0-25.6-10.24-25.6-25.6s10.24-25.6 25.6-25.6 25.6 10.24 25.6 25.6-10.24 25.6-25.6 25.6zM204.8 89.6c-43.52 0-76.8 33.28-76.8 76.8s33.28 76.8 76.8 76.8 76.8-33.28 76.8-76.8-33.28-76.8-76.8-76.8zM204.8 192c-15.36 0-25.6-10.24-25.6-25.6s10.24-25.6 25.6-25.6 25.6 10.24 25.6 25.6-10.24 25.6-25.6 25.6zM435.2 64c-15.36 0-25.6 10.24-25.6 25.6v153.6c0 15.36 10.24 25.6 25.6 25.6s25.6-10.24 25.6-25.6v-153.6c0-15.36-10.24-25.6-25.6-25.6zM870.4 345.6h-153.6c-15.36 0-25.6 10.24-25.6 25.6s10.24 25.6 25.6 25.6h153.6c15.36 0 25.6-10.24 25.6-25.6s-10.24-25.6-25.6-25.6zM742.4 115.2h-153.6c-15.36 0-25.6 10.24-25.6 25.6v102.4c0 15.36 10.24 25.6 25.6 25.6s25.6-10.24 25.6-25.6v-76.8h128c15.36 0 25.6-10.24 25.6-25.6s-10.24-25.6-25.6-25.6zM819.2 499.2h-102.4c-15.36 0-25.6 10.24-25.6 25.6s10.24 25.6 25.6 25.6h76.8v128c0 15.36 10.24 25.6 25.6 25.6s25.6-10.24 25.6-25.6v-153.6c0-15.36-10.24-25.6-25.6-25.6zM435.2-64c-43.52 0-76.8 33.28-76.8 76.8s33.28 76.8 76.8 76.8 76.8-33.28 76.8-76.8-33.28-76.8-76.8-76.8zM435.2 38.4c-15.36 0-25.6-10.24-25.6-25.6s10.24-25.6 25.6-25.6 25.6 10.24 25.6 25.6-10.24 25.6-25.6 25.6zM947.2 294.4c-43.52 0-76.8 33.28-76.8 76.8s33.28 76.8 76.8 76.8 76.8-33.28 76.8-76.8-33.28-76.8-76.8-76.8zM947.2 396.8c-15.36 0-25.6-10.24-25.6-25.6s10.24-25.6 25.6-25.6 25.6 10.24 25.6 25.6-10.24 25.6-25.6 25.6zM793.6 64c-43.52 0-76.8 33.28-76.8 76.8s33.28 76.8 76.8 76.8 76.8-33.28 76.8-76.8-33.28-76.8-76.8-76.8zM793.6 166.4c-15.36 0-25.6-10.24-25.6-25.6s10.24-25.6 25.6-25.6 25.6 10.24 25.6 25.6-10.24 25.6-25.6 25.6zM819.2 652.8c-43.52 0-76.8 33.28-76.8 76.8s33.28 76.8 76.8 76.8 76.8-33.28 76.8-76.8-33.28-76.8-76.8-76.8zM819.2 755.2c-15.36 0-25.6-10.24-25.6-25.6s10.24-25.6 25.6-25.6 25.6 10.24 25.6 25.6-10.24 25.6-25.6 25.6z" />
<glyph unicode="&#xe92b;" glyph-name="line-chart-cloud" d="M358.4 89.6h-256c-15.36 0-25.6 10.24-25.6 25.6s10.24 25.6 25.6 25.6h256c15.36 0 25.6-10.24 25.6-25.6s-10.24-25.6-25.6-25.6zM102.4 294.4c-5.12 0-10.24 2.56-15.36 5.12-12.8 7.68-15.36 23.040-7.68 35.84l204.8 307.2c7.68 10.24 20.48 15.36 33.28 7.68l186.88-92.16 192 240.64c5.12 2.56 12.8 7.68 17.92 7.68 7.68 0 15.36-2.56 20.48-7.68l204.8-204.8c10.24-10.24 10.24-25.6 0-35.84s-25.6-10.24-35.84 0l-184.32 184.32-186.88-232.96c-7.68-10.24-20.48-12.8-30.72-7.68l-184.32 92.16-194.56-289.28c-5.12-5.12-12.8-10.24-20.48-10.24zM893.44 89.6h-273.92c-74.24 0-133.12 58.88-133.12 130.56 0 66.56 48.64 120.32 112.64 130.56 25.6 66.56 99.84 107.52 174.080 94.72 40.96-7.68 76.8-30.72 99.84-64 15.36-23.040 23.040-48.64 23.040-74.24 56.32-2.56 99.84-51.2 99.84-107.52 2.56-61.44-43.52-110.080-102.4-110.080zM744.96 396.8c-48.64 0-89.6-30.72-99.84-74.24-2.56-12.8-12.8-20.48-25.6-20.48-46.080 0-81.92-35.84-81.92-79.36s35.84-79.36 81.92-79.36h273.92c30.72 0 53.76 25.6 53.76 56.32s-25.6 56.32-53.76 56.32h-23.040c-7.68 0-15.36 2.56-20.48 10.24-5.12 2.56-5.12 12.8-5.12 17.92 5.12 23.040 0 46.080-12.8 66.56-15.36 23.040-38.4 38.4-66.56 43.52-7.68 2.56-12.8 2.56-20.48 2.56z" />
<glyph unicode="&#xe92c;" glyph-name="link-bold" d="M537.6 238.080c-30.72 0-61.44 5.12-87.040 20.48-30.72 10.24-56.32 30.72-76.8 51.2s-20.48 51.2 0 71.68c20.48 20.48 51.2 20.48 71.68 0 10.24-10.24 25.6-20.48 40.96-30.72 30.72-15.36 66.56-15.36 97.28 0 15.36 5.12 30.72 15.36 40.96 30.72l204.8 204.8c30.72 25.6 40.96 56.32 40.96 92.16s-15.36 66.56-35.84 92.16c-51.2 51.2-133.12 51.2-184.32 0l-25.6-25.6c-20.48-20.48-51.2-20.48-71.68 0s-20.48 51.2 0 71.68l25.6 25.6c46.080 46.080 102.4 66.56 163.84 66.56s122.88-25.6 163.84-66.56c46.080-46.080 66.56-102.4 66.56-163.84s-25.6-122.88-66.56-163.84l-204.8-204.8c-20.48-20.48-46.080-40.96-76.8-51.2-25.6-10.24-56.32-20.48-87.040-20.48zM281.6-12.8c-61.44 0-122.88 25.6-163.84 66.56-46.080 46.080-66.56 102.4-66.56 163.84s25.6 122.88 66.56 163.84l204.8 204.8c20.48 20.48 46.080 40.96 76.8 51.2 56.32 25.6 122.88 25.6 179.2 0 30.72-10.24 51.2-30.72 76.8-51.2 20.48-20.48 20.48-51.2 0-71.68s-51.2-20.48-71.68 0c-10.24 10.24-25.6 20.48-40.96 30.72-30.72 15.36-66.56 15.36-97.28 0-25.6-10.24-40.96-20.48-51.2-30.72l-204.8-204.8c-25.6-25.6-35.84-56.32-35.84-92.16s15.36-66.56 35.84-92.16c51.2-51.2 133.12-51.2 184.32 0l25.6 25.6c20.48 20.48 51.2 20.48 71.68 0s20.48-51.2 0-71.68l-25.6-25.6c-40.96-46.080-102.4-66.56-163.84-66.56z" />
<glyph unicode="&#xe92d;" glyph-name="link" d="M537.6 266.24c-28.16 0-53.76 5.12-79.36 15.36s-48.64 25.6-66.56 46.080c-10.24 10.24-10.24 25.6 0 35.84s25.6 10.24 35.84 0c15.36-15.36 30.72-25.6 51.2-33.28 38.4-15.36 81.92-15.36 117.76 0 17.92 7.68 35.84 20.48 51.2 33.28l204.8 204.8c28.16 28.16 46.080 69.12 46.080 110.080s-15.36 79.36-46.080 110.080c-28.16 28.16-69.12 46.080-110.080 46.080s-79.36-15.36-110.080-46.080l-25.6-25.6c-10.24-10.24-25.6-10.24-35.84 0s-10.24 25.6 0 35.84l25.6 25.6c38.4 38.4 92.16 61.44 145.92 61.44s107.52-20.48 145.92-61.44 61.44-92.16 61.44-145.92-20.48-107.52-61.44-145.92l-204.8-204.8c-17.92-20.48-40.96-35.84-66.56-46.080s-51.2-15.36-79.36-15.36zM281.6 10.24c-56.32 0-107.52 20.48-145.92 61.44s-61.44 89.6-61.44 145.92 20.48 107.52 61.44 145.92l204.8 204.8c17.92 20.48 40.96 35.84 66.56 46.080 51.2 20.48 107.52 20.48 158.72 0 25.6-10.24 48.64-25.6 66.56-46.080 10.24-10.24 10.24-25.6 0-35.84s-25.6-10.24-35.84 0c-15.36 15.36-30.72 25.6-51.2 33.28-38.4 15.36-81.92 15.36-117.76 0-17.92-7.68-35.84-20.48-51.2-33.28l-204.8-204.8c-28.16-28.16-46.080-69.12-46.080-110.080s15.36-79.36 46.080-110.080c28.16-28.16 69.12-46.080 110.080-46.080s79.36 15.36 110.080 46.080l25.6 25.6c10.24 10.24 25.6 10.24 35.84 0s10.24-25.6 0-35.84l-25.6-25.6c-38.4-38.4-89.6-61.44-145.92-61.44z" />
<glyph unicode="&#xe92e;" glyph-name="linkedin" d="M236.444-64v664.445h-206.667v-664.445h206.667zM132 689.333c66.667 0 120 55.555 120 122.222 0 64.445-53.333 117.778-120 117.778-64.444 0-117.778-53.333-117.778-117.778 0-66.666 53.333-122.222 117.778-122.222zM1007.553-64h2.224v364.442c0 177.781-39.999 315.558-248.889 315.558-99.999 0-166.667-55.555-195.556-106.667h-2.222v91.112h-197.778v-664.445h206.667v328.886c0 86.67 15.553 168.892 122.22 168.892s108.891-97.781 108.891-175.553v-322.224h204.442z" />
<glyph unicode="&#xe92f;" glyph-name="long-arrow" d="M813.176 237.176c-9.035 0-15.059 3.012-21.082 9.035-12.047 12.047-12.047 30.118 0 42.165l129.506 129.506h-891.482c-18.071 0-30.118 12.047-30.118 30.118s12.047 30.118 30.118 30.118h891.482l-129.506 129.506c-12.047 12.047-12.047 30.118 0 42.165s30.118 12.047 42.165 0l180.706-180.706c0 0 0 0 0 0s0 0 0 0 0 0 0 0 0 0 0 0v0c3.012-3.012 6.024-6.024 6.024-9.035 3.012-3.012 3.012-9.035 3.012-12.047v0c0 0 0 0 0 0v0 0c0 0 0 0 0 0v0c0 0 0 0 0 0v0c0-3.012 0-9.035-3.012-12.047 0 0 0 0 0 0v0c0-3.012-3.012-6.024-6.024-9.035l-180.706-180.706c-6.024-6.024-12.047-9.035-21.082-9.035z" />
<glyph unicode="&#xe930;" glyph-name="mail" d="M870.4 38.4h-716.8c-87.040 0-153.6 66.56-153.6 153.6v512c0 0 0 0 0 0 0 81.92 71.68 153.6 153.6 153.6h716.8c81.92 0 153.6-66.56 153.6-153.6 0 0 0 0 0 0v-512c0-87.040-66.56-153.6-153.6-153.6zM102.4 606.72v-414.72c0-30.72 20.48-51.2 51.2-51.2h716.8c30.72 0 51.2 20.48 51.2 51.2v414.72l-378.88-256c-15.36-10.24-40.96-10.24-56.32 0l-384 256zM107.52 729.6l404.48-271.36 404.48 271.36c-10.24 15.36-25.6 25.6-46.080 25.6h-716.8c-20.48 0-35.84-10.24-46.080-25.6z" />
<glyph unicode="&#xe931;" glyph-name="modules" d="M128 345.6c0-14.138-11.462-25.6-25.6-25.6s-25.6 11.462-25.6 25.6c0 14.138 11.462 25.6 25.6 25.6s25.6-11.462 25.6-25.6zM870.4 627.2h-153.6c-20.48 0-40.96 7.68-53.76 23.040-15.36 12.8-23.040 33.28-23.040 53.76v102.4c0 20.48 7.68 40.96 23.040 53.76 12.8 15.36 33.28 23.040 53.76 23.040h153.6c20.48 0 40.96-7.68 53.76-23.040 15.36-12.8 23.040-33.28 23.040-53.76v-102.4c0-20.48-7.68-40.96-23.040-53.76-12.8-15.36-33.28-23.040-53.76-23.040zM716.8 832c-7.68 0-12.8-2.56-17.92-7.68s-7.68-10.24-7.68-17.92v-102.4c0-7.68 2.56-12.8 7.68-17.92s10.24-7.68 17.92-7.68h153.6c7.68 0 12.8 2.56 17.92 7.68s7.68 10.24 7.68 17.92v102.4c0 7.68-2.56 12.8-7.68 17.92s-10.24 7.68-17.92 7.68h-153.6zM870.4 320h-153.6c-20.48 0-40.96 7.68-53.76 23.040s-23.040 33.28-23.040 53.76v102.4c0 20.48 7.68 40.96 23.040 53.76 15.36 15.36 33.28 23.040 53.76 23.040h153.6c20.48 0 40.96-7.68 53.76-23.040 15.36-15.36 23.040-33.28 23.040-53.76v-102.4c0-20.48-7.68-40.96-23.040-53.76s-33.28-23.040-53.76-23.040zM716.8 524.8c-7.68 0-12.8-2.56-17.92-7.68s-7.68-10.24-7.68-17.92v-102.4c0-7.68 2.56-12.8 7.68-17.92s10.24-7.68 17.92-7.68h153.6c7.68 0 12.8 2.56 17.92 7.68s7.68 10.24 7.68 17.92v102.4c0 7.68-2.56 12.8-7.68 17.92s-10.24 7.68-17.92 7.68h-153.6zM870.4 12.8h-153.6c-20.48 0-40.96 7.68-53.76 23.040s-23.040 33.28-23.040 53.76v102.4c0 20.48 7.68 40.96 23.040 53.76s33.28 23.040 53.76 23.040h153.6c20.48 0 40.96-7.68 53.76-23.040s23.040-33.28 23.040-53.76v-102.4c0-20.48-7.68-40.96-23.040-53.76s-33.28-23.040-53.76-23.040zM716.8 217.6c-7.68 0-12.8-2.56-17.92-7.68s-7.68-10.24-7.68-17.92v-102.4c0-7.68 2.56-12.8 7.68-17.92s10.24-7.68 17.92-7.68h153.6c7.68 0 12.8 2.56 17.92 7.68s7.68 10.24 7.68 17.92v102.4c0 7.68-2.56 12.8-7.68 17.92s-10.24 7.68-17.92 7.68h-153.6zM819.2 729.6h-51.2c-15.36 0-25.6 10.24-25.6 25.6s10.24 25.6 25.6 25.6h51.2c15.36 0 25.6-10.24 25.6-25.6s-10.24-25.6-25.6-25.6zM819.2 422.4h-51.2c-15.36 0-25.6 10.24-25.6 25.6s10.24 25.6 25.6 25.6h51.2c15.36 0 25.6-10.24 25.6-25.6s-10.24-25.6-25.6-25.6zM819.2 115.2h-51.2c-15.36 0-25.6 10.24-25.6 25.6s10.24 25.6 25.6 25.6h51.2c15.36 0 25.6-10.24 25.6-25.6s-10.24-25.6-25.6-25.6zM665.6 115.2h-76.8c-7.68 0-12.8 2.56-17.92 7.68l-145.92 145.92h-40.96v-51.2c0-56.32-46.080-102.4-102.4-102.4h-102.4c-56.32 0-102.4 46.080-102.4 102.4v25.6c0 15.36 10.24 25.6 25.6 25.6s25.6-10.24 25.6-25.6v-25.6c0-28.16 23.040-51.2 51.2-51.2h102.4c28.16 0 51.2 23.040 51.2 51.2v460.8c0 28.16-23.040 51.2-51.2 51.2h-102.4c-28.16 0-51.2-23.040-51.2-51.2v-230.4c0-15.36-10.24-25.6-25.6-25.6s-25.6 10.24-25.6 25.6v230.4c0 56.32 46.080 102.4 102.4 102.4h102.4c56.32 0 102.4-46.080 102.4-102.4v-51.2h40.96l145.92 145.92c5.12 5.12 10.24 7.68 17.92 7.68h76.8c15.36 0 25.6-10.24 25.6-25.6s-10.24-25.6-25.6-25.6h-66.56l-145.92-145.92c-5.12-5.12-10.24-7.68-17.92-7.68h-51.2v-102.4h281.6c15.36 0 25.6-10.24 25.6-25.6s-10.24-25.6-25.6-25.6h-281.6v-102.4h51.2c7.68 0 12.8-2.56 17.92-7.68l145.92-145.92h66.56c15.36 0 25.6-10.24 25.6-25.6s-10.24-25.6-25.6-25.6z" />
<glyph unicode="&#xe932;" glyph-name="money-sheet" d="M537.6 268.8h-128c-15.36 0-25.6 10.24-25.6 25.6s10.24 25.6 25.6 25.6h128c28.16 0 51.2 23.040 51.2 51.2s-23.040 51.2-51.2 51.2h-51.2c-56.32 0-102.4 46.080-102.4 102.4s46.080 102.4 102.4 102.4h128c15.36 0 25.6-10.24 25.6-25.6s-10.24-25.6-25.6-25.6h-128c-28.16 0-51.2-23.040-51.2-51.2s23.040-51.2 51.2-51.2h51.2c56.32 0 102.4-46.080 102.4-102.4s-46.080-102.4-102.4-102.4zM512 217.6c-15.36 0-25.6 10.24-25.6 25.6v51.2c0 15.36 10.24 25.6 25.6 25.6s25.6-10.24 25.6-25.6v-51.2c0-15.36-10.24-25.6-25.6-25.6zM512 576c-15.36 0-25.6 10.24-25.6 25.6v51.2c0 15.36 10.24 25.6 25.6 25.6s25.6-10.24 25.6-25.6v-51.2c0-15.36-10.24-25.6-25.6-25.6zM819.2-38.4h-614.4c-43.52 0-76.8 33.28-76.8 76.8v819.2c0 43.52 33.28 76.8 76.8 76.8h409.6c7.68 0 12.8-2.56 17.92-7.68l256-256c5.12-5.12 7.68-10.24 7.68-17.92v-614.4c0-43.52-33.28-76.8-76.8-76.8zM204.8 883.2c-15.36 0-25.6-10.24-25.6-25.6v-819.2c0-15.36 10.24-25.6 25.6-25.6h614.4c15.36 0 25.6 10.24 25.6 25.6v604.16l-240.64 240.64h-399.36z" />
<glyph unicode="&#xe933;" glyph-name="news" d="M819.2 12.8h-563.2c-48.64 0-92.16 17.92-125.44 53.76-35.84 33.28-53.76 76.8-53.76 125.44v614.4c0 20.48 7.68 40.96 23.040 53.76 12.8 15.36 33.28 23.040 53.76 23.040h512c20.48 0 40.96-7.68 53.76-23.040 15.36-12.8 23.040-33.28 23.040-53.76v-25.6h128c20.48 0 40.96-7.68 53.76-23.040 15.36-12.8 23.040-33.28 23.040-53.76v-563.2c0-33.28-12.8-66.56-38.4-89.6s-56.32-38.4-89.6-38.4zM819.2 64c20.48 0 40.96 7.68 53.76 23.040s23.040 33.28 23.040 53.76v563.2c0 7.68-2.56 12.8-7.68 17.92s-10.24 7.68-17.92 7.68h-128v-588.8c0-20.48 7.68-40.96 23.040-53.76s33.28-23.040 53.76-23.040zM153.6 832c-7.68 0-12.8-2.56-17.92-7.68s-7.68-10.24-7.68-17.92v-614.4c0-33.28 12.8-66.56 38.4-89.6 23.040-25.6 56.32-38.4 89.6-38.4h460.8c-15.36 23.040-25.6 48.64-25.6 76.8v665.6c0 7.68-2.56 12.8-7.68 17.92s-10.24 7.68-17.92 7.68h-512zM537.6 678.4h-281.6c-15.36 0-25.6 10.24-25.6 25.6s10.24 25.6 25.6 25.6h281.6c15.36 0 25.6-10.24 25.6-25.6s-10.24-25.6-25.6-25.6zM537.6 524.8h-281.6c-15.36 0-25.6 10.24-25.6 25.6s10.24 25.6 25.6 25.6h281.6c15.36 0 25.6-10.24 25.6-25.6s-10.24-25.6-25.6-25.6zM537.6 371.2h-281.6c-15.36 0-25.6 10.24-25.6 25.6s10.24 25.6 25.6 25.6h281.6c15.36 0 25.6-10.24 25.6-25.6s-10.24-25.6-25.6-25.6zM537.6 217.6h-281.6c-15.36 0-25.6 10.24-25.6 25.6s10.24 25.6 25.6 25.6h281.6c15.36 0 25.6-10.24 25.6-25.6s-10.24-25.6-25.6-25.6z" />
<glyph unicode="&#xe934;" glyph-name="phone" d="M819.2-38.4c-207.36 12.8-401.92 99.84-547.84 245.76s-232.96 340.48-245.76 545.28c0 35.84 12.8 69.12 38.4 92.16 23.040 25.6 56.32 38.4 89.6 38.4h204.8c10.24 0 20.48-5.12 23.040-15.36l102.4-256c5.12-12.8 0-25.6-10.24-30.72l-107.52-64c48.64-89.6 122.88-163.84 212.48-212.48l64 107.52c7.68 10.24 20.48 15.36 30.72 10.24l256-102.4c10.24-5.12 15.36-12.8 15.36-23.040v-204.8c0-33.28-12.8-66.56-38.4-89.6s-53.76-40.96-87.040-40.96zM153.6 832c-20.48 0-40.96-7.68-53.76-23.040-15.36-12.8-23.040-33.28-23.040-53.76 12.8-192 94.72-373.76 230.4-512 138.24-138.24 320-220.16 512-230.4 17.92 0 38.4 7.68 53.76 23.040s23.040 33.28 23.040 53.76v186.88l-220.16 87.040-66.56-110.080c-7.68-10.24-20.48-15.36-33.28-10.24-115.2 58.88-209.92 153.6-266.24 271.36-5.12 12.8-2.56 25.6 10.24 33.28l110.080 66.56-89.6 217.6h-186.88z" />
<glyph unicode="&#xe935;" glyph-name="pie-bar-chart" d="M256 473.6c-128 0-230.4 102.4-230.4 230.4s102.4 230.4 230.4 230.4 230.4-102.4 230.4-230.4-102.4-230.4-230.4-230.4zM256 883.2c-99.84 0-179.2-79.36-179.2-179.2s79.36-179.2 179.2-179.2 179.2 79.36 179.2 179.2-79.36 179.2-179.2 179.2zM460.8 678.4h-204.8c-15.36 0-25.6 10.24-25.6 25.6v204.8c0 15.36 10.24 25.6 25.6 25.6s25.6-10.24 25.6-25.6v-179.2h179.2c15.36 0 25.6-10.24 25.6-25.6s-10.24-25.6-25.6-25.6zM358.4-38.4c-15.36 0-25.6 10.24-25.6 25.6v204.8c0 15.36 10.24 25.6 25.6 25.6s25.6-10.24 25.6-25.6v-204.8c0-15.36-10.24-25.6-25.6-25.6zM768-38.4c-15.36 0-25.6 10.24-25.6 25.6v358.4c0 15.36 10.24 25.6 25.6 25.6s25.6-10.24 25.6-25.6v-358.4c0-15.36-10.24-25.6-25.6-25.6zM563.2-38.4c-15.36 0-25.6 10.24-25.6 25.6v409.6c0 15.36 10.24 25.6 25.6 25.6s25.6-10.24 25.6-25.6v-409.6c0-15.36-10.24-25.6-25.6-25.6zM972.8-38.4c-15.36 0-25.6 10.24-25.6 25.6v460.8c0 15.36 10.24 25.6 25.6 25.6s25.6-10.24 25.6-25.6v-460.8c0-15.36-10.24-25.6-25.6-25.6z" />
<glyph unicode="&#xe936;" glyph-name="pie-chart" d="M179.2 140.8c-7.68 0-15.36 2.56-20.48 10.24-10.24 10.24-7.68 28.16 2.56 35.84l332.8 281.6c10.24 10.24 28.16 7.68 35.84-2.56 10.24-10.24 7.68-28.16-2.56-35.84l-332.8-281.6c-2.56-5.12-10.24-7.68-15.36-7.68zM972.8 422.4h-460.8c-15.36 0-25.6 10.24-25.6 25.6v460.8c0 15.36 10.24 25.6 25.6 25.6s25.6-10.24 25.6-25.6v-435.2h435.2c15.36 0 25.6-10.24 25.6-25.6s-10.24-25.6-25.6-25.6zM512-38.4c-268.8 0-486.4 217.6-486.4 486.4s217.6 486.4 486.4 486.4 486.4-217.6 486.4-486.4-217.6-486.4-486.4-486.4zM512 883.2c-240.64 0-435.2-194.56-435.2-435.2s194.56-435.2 435.2-435.2 435.2 194.56 435.2 435.2-194.56 435.2-435.2 435.2zM768 38.4c-7.68 0-15.36 5.12-20.48 10.24l-256 384c-7.68 12.8-5.12 28.16 7.68 35.84s28.16 5.12 35.84-7.68l256-384c7.68-12.8 5.12-28.16-7.68-35.84-5.12 0-10.24-2.56-15.36-2.56z" />
<glyph unicode="&#xe937;" glyph-name="play" d="M85.333-44.681l853.333 492.675-853.333 492.672v-985.347z" />
<glyph unicode="&#xe938;" glyph-name="refresh" d="M921.6 473.6c-12.8 0-23.040 10.24-25.6 23.040-15.36 102.4-69.12 194.56-151.040 258.56s-186.88 89.6-289.28 74.24c-122.88-17.92-230.4-94.72-289.28-202.24h140.8c15.36 0 25.6-10.24 25.6-25.6s-10.24-25.6-25.6-25.6h-204.8c-15.36 0-25.6 10.24-25.6 25.6v204.8c0 15.36 10.24 25.6 25.6 25.6s25.6-10.24 25.6-25.6v-143.36c66.56 117.76 186.88 197.12 322.56 217.6 117.76 15.36 232.96-12.8 327.68-84.48s153.6-174.080 171.52-291.84c2.56-12.8-7.68-28.16-23.040-28.16-2.56-2.56-5.12-2.56-5.12-2.56zM512 12.8c-94.72 0-186.88 30.72-263.68 89.6-94.72 71.68-156.16 174.080-171.52 289.28-2.56 12.8 7.68 28.16 23.040 28.16 12.8 2.56 28.16-7.68 28.16-23.040 15.36-102.4 66.56-194.56 151.040-256 81.92-64 184.32-89.6 289.28-74.24 122.88 17.92 230.4 92.16 289.28 199.68h-140.8c-15.36 0-25.6 10.24-25.6 25.6s10.24 25.6 25.6 25.6h179.2c0 0 0 0 0 0h25.6c15.36 0 25.6-10.24 25.6-25.6v-204.8c0-15.36-10.24-25.6-25.6-25.6s-25.6 10.24-25.6 25.6v145.92c-66.56-117.76-186.88-199.68-322.56-217.6-20.48 0-40.96-2.56-61.44-2.56z" />
<glyph unicode="&#xe939;" glyph-name="report-pie-chart" d="M471.040-12.8h-291.84c-33.28 0-66.56 12.8-89.6 38.4-25.6 23.040-38.4 56.32-38.4 89.6v614.4c0 33.28 12.8 66.56 38.4 89.6 23.040 25.6 56.32 38.4 89.6 38.4h102.4c15.36 0 25.6-10.24 25.6-25.6s-10.24-25.6-25.6-25.6h-102.4c-20.48 0-40.96-7.68-53.76-23.040-15.36-12.8-23.040-33.28-23.040-53.76v-614.4c0-20.48 7.68-40.96 23.040-53.76 12.8-15.36 33.28-23.040 53.76-23.040h291.84c15.36 0 25.6-10.24 25.6-25.6s-12.8-25.6-25.6-25.6zM998.4 140.8h-204.8c-15.36 0-25.6 10.24-25.6 25.6v204.8c0 15.36 10.24 25.6 25.6 25.6s25.6-10.24 25.6-25.6v-179.2h179.2c15.36 0 25.6-10.24 25.6-25.6s-10.24-25.6-25.6-25.6zM793.6 499.2c-15.36 0-25.6 10.24-25.6 25.6v204.8c0 20.48-7.68 40.96-23.040 53.76-12.8 15.36-33.28 23.040-53.76 23.040h-102.4c-15.36 0-25.6 10.24-25.6 25.6s10.24 25.6 25.6 25.6h102.4c33.28 0 66.56-12.8 89.6-38.4 25.6-23.040 38.4-56.32 38.4-89.6v-204.8c0-15.36-10.24-25.6-25.6-25.6zM512 729.6h-153.6c-56.32 0-102.4 46.080-102.4 102.4s46.080 102.4 102.4 102.4h153.6c56.32 0 102.4-46.080 102.4-102.4s-46.080-102.4-102.4-102.4zM358.4 883.2c-28.16 0-51.2-23.040-51.2-51.2s23.040-51.2 51.2-51.2h153.6c28.16 0 51.2 23.040 51.2 51.2s-23.040 51.2-51.2 51.2h-153.6zM793.6-64c-128 0-230.4 102.4-230.4 230.4s102.4 230.4 230.4 230.4 230.4-102.4 230.4-230.4-102.4-230.4-230.4-230.4zM793.6 345.6c-99.84 0-179.2-79.36-179.2-179.2s79.36-179.2 179.2-179.2 179.2 79.36 179.2 179.2-79.36 179.2-179.2 179.2zM486.4 499.2h-204.8c-15.36 0-25.6 10.24-25.6 25.6s10.24 25.6 25.6 25.6h204.8c15.36 0 25.6-10.24 25.6-25.6s-10.24-25.6-25.6-25.6zM435.2 294.4h-153.6c-15.36 0-25.6 10.24-25.6 25.6s10.24 25.6 25.6 25.6h153.6c15.36 0 25.6-10.24 25.6-25.6s-10.24-25.6-25.6-25.6z" />
<glyph unicode="&#xe93a;" glyph-name="ribbon" d="M512 268.8c-184.32 0-332.8 148.48-332.8 332.8s148.48 332.8 332.8 332.8c184.32 0 332.8-148.48 332.8-332.8s-148.48-332.8-332.8-332.8zM512 883.2c-156.16 0-281.6-125.44-281.6-281.6s125.44-281.6 281.6-281.6 281.6 125.44 281.6 281.6-125.44 281.6-281.6 281.6zM686.080-33.28c-10.24 0-17.92 5.12-23.040 12.8l-174.080 302.080c-7.68 12.8-2.56 28.16 10.24 35.84s28.16 2.56 35.84-10.24l151.040-261.12 61.44 122.88c5.12 10.24 15.36 15.36 25.6 15.36l135.68-7.68-151.040 261.12c-7.68 12.8-2.56 28.16 10.24 35.84s28.16 2.56 35.84-10.24l174.080-302.080c5.12-7.68 5.12-17.92 0-25.6s-15.36-12.8-23.040-12.8l-166.4 10.24-74.24-151.040c-10.24-10.24-17.92-15.36-28.16-15.36 0 0 0 0 0 0zM337.92-33.28c0 0 0 0 0 0-10.24 0-17.92 5.12-23.040 15.36l-74.24 151.040-166.4-10.24c-10.24 0-17.92 5.12-23.040 12.8s-5.12 17.92 0 25.6l174.080 302.080c7.68 12.8 23.040 15.36 35.84 10.24 12.8-7.68 15.36-23.040 10.24-35.84l-153.6-263.68 135.68 7.68c10.24 0 20.48-5.12 25.6-15.36l61.44-122.88 151.040 261.12c7.68 12.8 23.040 15.36 35.84 10.24 12.8-7.68 15.36-23.040 10.24-35.84l-174.080-302.080c-7.68-5.12-15.36-10.24-25.6-10.24z" />
<glyph unicode="&#xe93b;" glyph-name="check" horiz-adv-x="1365" d="M512-64c-51.2 0-85.333 17.067-119.467 51.2l-341.333 341.333c-68.267 68.267-68.267 170.667 0 238.933s170.667 68.267 238.933 0l221.867-221.867 563.2 563.2c68.267 68.267 170.667 68.267 238.933 0s68.267-170.667 0-238.933l-682.667-682.667c-34.133-34.133-68.267-51.2-119.467-51.2z" />
<glyph unicode="&#xe93c;" glyph-name="search-checklist" d="M128 729.6c-7.68 0-12.8 2.56-17.92 7.68l-76.8 76.8c-10.24 10.24-10.24 25.6 0 35.84s25.6 10.24 35.84 0l58.88-58.88 110.080 110.080c10.24 10.24 25.6 10.24 35.84 0s10.24-25.6 0-35.84l-128-128c-5.12-5.12-10.24-7.68-17.92-7.68zM128 422.4c-7.68 0-12.8 2.56-17.92 7.68l-76.8 76.8c-10.24 10.24-10.24 25.6 0 35.84s25.6 10.24 35.84 0l58.88-58.88 110.080 110.080c10.24 10.24 25.6 10.24 35.84 0s10.24-25.6 0-35.84l-128-128c-5.12-5.12-10.24-7.68-17.92-7.68zM128 115.2c-7.68 0-12.8 2.56-17.92 7.68l-76.8 76.8c-10.24 10.24-10.24 25.6 0 35.84s25.6 10.24 35.84 0l58.88-58.88 110.080 110.080c10.24 10.24 25.6 10.24 35.84 0s10.24-25.6 0-35.84l-128-128c-5.12-5.12-10.24-7.68-17.92-7.68zM896 780.8h-512c-15.36 0-25.6 10.24-25.6 25.6s10.24 25.6 25.6 25.6h512c15.36 0 25.6-10.24 25.6-25.6s-10.24-25.6-25.6-25.6zM896 473.6h-512c-15.36 0-25.6 10.24-25.6 25.6s10.24 25.6 25.6 25.6h512c15.36 0 25.6-10.24 25.6-25.6s-10.24-25.6-25.6-25.6zM537.6 166.4h-153.6c-15.36 0-25.6 10.24-25.6 25.6s10.24 25.6 25.6 25.6h153.6c15.36 0 25.6-10.24 25.6-25.6s-10.24-25.6-25.6-25.6zM793.6 64c-71.68 0-128 56.32-128 128s56.32 128 128 128 128-56.32 128-128-56.32-128-128-128zM793.6 268.8c-43.52 0-76.8-33.28-76.8-76.8s33.28-76.8 76.8-76.8 76.8 33.28 76.8 76.8-33.28 76.8-76.8 76.8zM972.8-12.8c-7.68 0-12.8 2.56-17.92 7.68l-102.4 102.4c-10.24 10.24-10.24 25.6 0 35.84s25.6 10.24 35.84 0l102.4-102.4c10.24-10.24 10.24-25.6 0-35.84-5.12-5.12-10.24-7.68-17.92-7.68z" />
<glyph unicode="&#xe93d;" glyph-name="search" d="M967.111-64c-17.067 0-28.444 5.689-39.822 17.067l-193.422 193.422c-79.644-62.578-176.356-96.711-278.756-96.711-250.311 0-455.111 204.8-455.111 455.111s204.8 455.111 455.111 455.111 455.111-204.8 455.111-455.111c0-102.4-34.133-199.111-96.711-278.756l193.422-193.422c22.756-22.756 22.756-56.889 0-79.644-11.378-11.378-22.756-17.067-39.822-17.067zM455.111 846.222c-187.733 0-341.333-153.6-341.333-341.333s153.6-341.333 341.333-341.333 341.333 153.6 341.333 341.333-153.6 341.333-341.333 341.333z" />
<glyph unicode="&#xe93e;" glyph-name="server-1" d="M896 576h-768c-56.32 0-102.4 46.080-102.4 102.4v153.6c0 56.32 46.080 102.4 102.4 102.4h768c56.32 0 102.4-46.080 102.4-102.4v-153.6c0-56.32-46.080-102.4-102.4-102.4zM128 883.2c-28.16 0-51.2-23.040-51.2-51.2v-153.6c0-28.16 23.040-51.2 51.2-51.2h768c28.16 0 51.2 23.040 51.2 51.2v153.6c0 28.16-23.040 51.2-51.2 51.2h-768zM896 268.8h-768c-56.32 0-102.4 46.080-102.4 102.4v153.6c0 56.32 46.080 102.4 102.4 102.4h768c56.32 0 102.4-46.080 102.4-102.4v-153.6c0-56.32-46.080-102.4-102.4-102.4zM128 576c-28.16 0-51.2-23.040-51.2-51.2v-153.6c0-28.16 23.040-51.2 51.2-51.2h768c28.16 0 51.2 23.040 51.2 51.2v153.6c0 28.16-23.040 51.2-51.2 51.2h-768zM896-38.4h-768c-56.32 0-102.4 46.080-102.4 102.4v153.6c0 56.32 46.080 102.4 102.4 102.4h768c56.32 0 102.4-46.080 102.4-102.4v-153.6c0-56.32-46.080-102.4-102.4-102.4zM128 268.8c-28.16 0-51.2-23.040-51.2-51.2v-153.6c0-28.16 23.040-51.2 51.2-51.2h768c28.16 0 51.2 23.040 51.2 51.2v153.6c0 28.16-23.040 51.2-51.2 51.2h-768zM256 729.6c-15.36 0-25.6 10.24-25.6 25.6s10.24 25.6 25.6 25.6 25.6-10.24 25.6-25.6v0c0-15.36-10.24-25.6-25.6-25.6zM256 422.4c-15.36 0-25.6 10.24-25.6 25.6s10.24 25.6 25.6 25.6 25.6-10.24 25.6-25.6v0c0-15.36-10.24-25.6-25.6-25.6zM256 115.2c-15.36 0-25.6 10.24-25.6 25.6s10.24 25.6 25.6 25.6 25.6-10.24 25.6-25.6v0c0-15.36-10.24-25.6-25.6-25.6z" />
<glyph unicode="&#xe93f;" glyph-name="server-2" d="M819.2 550.4h-614.4c-56.32 0-102.4 46.080-102.4 102.4v102.4c0 56.32 46.080 102.4 102.4 102.4h614.4c56.32 0 102.4-46.080 102.4-102.4v-102.4c0-56.32-46.080-102.4-102.4-102.4zM204.8 806.4c-28.16 0-51.2-23.040-51.2-51.2v-102.4c0-28.16 23.040-51.2 51.2-51.2h614.4c28.16 0 51.2 23.040 51.2 51.2v102.4c0 28.16-23.040 51.2-51.2 51.2h-614.4zM819.2 294.4h-614.4c-56.32 0-102.4 46.080-102.4 102.4v102.4c0 56.32 46.080 102.4 102.4 102.4h614.4c56.32 0 102.4-46.080 102.4-102.4v-102.4c0-56.32-46.080-102.4-102.4-102.4zM204.8 550.4c-28.16 0-51.2-23.040-51.2-51.2v-102.4c0-28.16 23.040-51.2 51.2-51.2h614.4c28.16 0 51.2 23.040 51.2 51.2v102.4c0 28.16-23.040 51.2-51.2 51.2h-614.4zM819.2 38.4h-614.4c-56.32 0-102.4 46.080-102.4 102.4v102.4c0 56.32 46.080 102.4 102.4 102.4h614.4c56.32 0 102.4-46.080 102.4-102.4v-102.4c0-56.32-46.080-102.4-102.4-102.4zM204.8 294.4c-28.16 0-51.2-23.040-51.2-51.2v-102.4c0-28.16 23.040-51.2 51.2-51.2h614.4c28.16 0 51.2 23.040 51.2 51.2v102.4c0 28.16-23.040 51.2-51.2 51.2h-614.4zM256 678.4c-15.36 0-25.6 10.24-25.6 25.6s10.24 25.6 25.6 25.6 25.6-10.24 25.6-25.6v0c0-15.36-10.24-25.6-25.6-25.6zM256 422.4c-15.36 0-25.6 10.24-25.6 25.6s10.24 25.6 25.6 25.6 25.6-10.24 25.6-25.6v0c0-15.36-10.24-25.6-25.6-25.6zM256 166.4c-15.36 0-25.6 10.24-25.6 25.6s10.24 25.6 25.6 25.6 25.6-10.24 25.6-25.6v0c0-15.36-10.24-25.6-25.6-25.6z" />
<glyph unicode="&#xe940;" glyph-name="share" d="M512-38.4c-268.8 0-486.4 217.6-486.4 486.4s217.6 486.4 486.4 486.4 486.4-217.6 486.4-486.4-217.6-486.4-486.4-486.4zM512 883.2c-240.64 0-435.2-194.56-435.2-435.2s194.56-435.2 435.2-435.2 435.2 194.56 435.2 435.2-194.56 435.2-435.2 435.2zM332.8 345.6c-56.32 0-102.4 46.080-102.4 102.4s46.080 102.4 102.4 102.4 102.4-46.080 102.4-102.4c0-56.32-46.080-102.4-102.4-102.4zM332.8 499.2c-28.16 0-51.2-23.040-51.2-51.2s23.040-51.2 51.2-51.2 51.2 23.040 51.2 51.2c0 28.16-23.040 51.2-51.2 51.2zM640 499.2c-56.32 0-102.4 46.080-102.4 102.4s46.080 102.4 102.4 102.4 102.4-46.080 102.4-102.4-46.080-102.4-102.4-102.4zM640 652.8c-28.16 0-51.2-23.040-51.2-51.2s23.040-51.2 51.2-51.2 51.2 23.040 51.2 51.2-23.040 51.2-51.2 51.2zM640 192c-56.32 0-102.4 46.080-102.4 102.4s46.080 102.4 102.4 102.4 102.4-46.080 102.4-102.4-46.080-102.4-102.4-102.4zM640 345.6c-28.16 0-51.2-23.040-51.2-51.2s23.040-51.2 51.2-51.2 51.2 23.040 51.2 51.2-23.040 51.2-51.2 51.2zM401.92 455.68c-10.24 0-17.92 5.12-23.040 12.8-7.68 12.8-2.56 28.16 10.24 33.28l168.96 87.040c12.8 7.68 28.16 2.56 33.28-10.24 7.68-12.8 2.56-28.16-10.24-33.28l-168.96-87.040c-2.56-2.56-5.12-2.56-10.24-2.56zM570.88 302.080c-5.12 0-7.68 0-12.8 2.56l-168.96 87.040c-12.8 7.68-17.92 23.040-10.24 33.28 7.68 12.8 23.040 17.92 33.28 10.24l168.96-87.040c12.8-7.68 17.92-23.040 10.24-33.28-2.56-7.68-10.24-12.8-20.48-12.8z" />
<glyph unicode="&#xe941;" glyph-name="sheet-check" d="M819.2-38.4h-614.4c-43.52 0-76.8 33.28-76.8 76.8v819.2c0 43.52 33.28 76.8 76.8 76.8h409.6c7.68 0 12.8-2.56 17.92-7.68l256-256c5.12-5.12 7.68-10.24 7.68-17.92v-614.4c0-43.52-33.28-76.8-76.8-76.8zM204.8 883.2c-15.36 0-25.6-10.24-25.6-25.6v-819.2c0-15.36 10.24-25.6 25.6-25.6h614.4c15.36 0 25.6 10.24 25.6 25.6v604.16l-240.64 240.64h-399.36zM870.4 627.2h-204.8c-20.48 0-40.96 7.68-53.76 23.040-15.36 12.8-23.040 33.28-23.040 53.76v204.8c0 15.36 10.24 25.6 25.6 25.6s25.6-10.24 25.6-25.6v-204.8c0-7.68 2.56-12.8 7.68-17.92s10.24-7.68 17.92-7.68h204.8c15.36 0 25.6-10.24 25.6-25.6s-10.24-25.6-25.6-25.6zM460.8 217.6c-7.68 0-12.8 2.56-17.92 7.68l-102.4 102.4c-10.24 10.24-10.24 25.6 0 35.84s25.6 10.24 35.84 0l84.48-84.48 186.88 186.88c10.24 10.24 25.6 10.24 35.84 0s10.24-25.6 0-35.84l-204.8-204.8c-5.12-5.12-10.24-7.68-17.92-7.68z" />
<glyph unicode="&#xe942;" glyph-name="sheet-technical" d="M819.2-38.4h-614.4c-43.52 0-76.8 33.28-76.8 76.8v819.2c0 43.52 33.28 76.8 76.8 76.8h409.6c7.68 0 12.8-2.56 17.92-7.68l256-256c5.12-5.12 7.68-10.24 7.68-17.92v-614.4c0-43.52-33.28-76.8-76.8-76.8zM204.8 883.2c-15.36 0-25.6-10.24-25.6-25.6v-819.2c0-15.36 10.24-25.6 25.6-25.6h614.4c15.36 0 25.6 10.24 25.6 25.6v604.16l-240.64 240.64h-399.36zM870.4 627.2h-204.8c-20.48 0-40.96 7.68-53.76 23.040-15.36 12.8-23.040 33.28-23.040 53.76v204.8c0 15.36 10.24 25.6 25.6 25.6s25.6-10.24 25.6-25.6v-204.8c0-7.68 2.56-12.8 7.68-17.92s10.24-7.68 17.92-7.68h204.8c15.36 0 25.6-10.24 25.6-25.6s-10.24-25.6-25.6-25.6zM512 115.2c0 0 0 0 0 0-30.72 0-56.32 20.48-64 48.64 0 2.56-2.56 5.12-2.56 5.12-2.56 2.56-2.56 2.56-5.12 2.56s-5.12 0-5.12 0-5.12 0-5.12-2.56c-25.6-15.36-58.88-12.8-79.36 10.24-20.48 20.48-25.6 53.76-10.24 79.36 0 2.56 2.56 5.12 2.56 5.12 0 2.56 0 5.12 0 5.12 0 2.56-2.56 2.56-2.56 5.12-2.56 2.56-2.56 2.56-5.12 2.56-33.28 12.8-53.76 38.4-53.76 69.12s20.48 56.32 48.64 64c2.56 0 5.12 2.56 5.12 2.56 2.56 2.56 2.56 2.56 2.56 5.12s0 5.12 0 5.12 0 5.12-2.56 5.12c-15.36 25.6-12.8 58.88 10.24 79.36 20.48 20.48 53.76 25.6 79.36 10.24 5.12-2.56 10.24-2.56 12.8 0 2.56 0 7.68 2.56 7.68 10.24 7.68 30.72 33.28 48.64 64 48.64s56.32-20.48 64-48.64c0-2.56 2.56-5.12 2.56-5.12 2.56-2.56 2.56-2.56 5.12-2.56s5.12 0 5.12 0 5.12 0 5.12 2.56c25.6 15.36 58.88 12.8 79.36-10.24 20.48-20.48 25.6-53.76 10.24-79.36 0-2.56-2.56-5.12-2.56-5.12 0-2.56 0-5.12 0-5.12 0-2.56 2.56-2.56 2.56-5.12 2.56-2.56 2.56-2.56 5.12-2.56 30.72-7.68 48.64-33.28 48.64-64s-20.48-56.32-48.64-64c-2.56 0-5.12-2.56-5.12-2.56-2.56-2.56-2.56-2.56-2.56-5.12s0-5.12 0-5.12 0-5.12 2.56-5.12c15.36-25.6 12.8-58.88-10.24-79.36-20.48-20.48-53.76-25.6-79.36-10.24-2.56 0-5.12 2.56-5.12 2.56-2.56 0-5.12 0-5.12 0-2.56 0-2.56-2.56-5.12-2.56-2.56-2.56-2.56-2.56-2.56-5.12-5.12-38.4-30.72-58.88-61.44-58.88zM435.2 225.28c7.68 0 17.92-2.56 25.6-5.12 10.24-5.12 17.92-10.24 25.6-17.92s10.24-17.92 12.8-28.16c2.56-7.68 10.24-7.68 12.8-7.68v0c2.56 0 10.24 0 12.8 10.24s7.68 17.92 12.8 25.6c7.68 7.68 15.36 12.8 25.6 17.92s20.48 5.12 30.72 5.12c10.24 0 20.48-5.12 28.16-10.24s15.36 0 17.92 2.56c2.56 2.56 7.68 7.68 2.56 17.92-5.12 7.68-7.68 17.92-10.24 28.16 0 10.24 0 20.48 5.12 30.72s10.24 17.92 17.92 25.6c7.68 7.68 17.92 10.24 28.16 12.8 7.68 2.56 7.68 10.24 7.68 12.8s0 10.24-10.24 12.8c-10.24 2.56-17.92 7.68-25.6 12.8-7.68 7.68-12.8 15.36-17.92 25.6s-5.12 20.48-5.12 30.72c0 10.24 5.12 20.48 10.24 28.16s0 15.36-2.56 17.92c-2.56 2.56-7.68 7.68-17.92 2.56-7.68-5.12-17.92-7.68-28.16-10.24-10.24 0-20.48 0-30.72 5.12s-17.92 10.24-25.6 17.92c-7.68 7.68-10.24 17.92-12.8 25.6-2.56 10.24-10.24 10.24-12.8 10.24s-10.24 0-12.8-10.24c0 0 0 0 0 0-5.12-20.48-17.92-35.84-38.4-43.52s-40.96-5.12-58.88 5.12c-7.68 5.12-15.36 0-17.92-2.56s-7.68-7.68-2.56-17.92c5.12-7.68 7.68-17.92 10.24-28.16 0-10.24 0-20.48-5.12-30.72s-10.24-17.92-17.92-25.6c-7.68-7.68-17.92-10.24-25.6-12.8-10.24-2.56-10.24-10.24-10.24-12.8s0-10.24 10.24-12.8c10.24-2.56 17.92-7.68 28.16-12.8 7.68-7.68 12.8-15.36 17.92-25.6s5.12-20.48 5.12-30.72c0-10.24-5.12-20.48-10.24-28.16s0-15.36 2.56-17.92c2.56-2.56 7.68-7.68 17.92-2.56 7.68 5.12 17.92 7.68 28.16 10.24 0 0 2.56 0 2.56 0zM473.6 519.68v0 0zM512 268.8c-43.52 0-76.8 33.28-76.8 76.8s33.28 76.8 76.8 76.8 76.8-33.28 76.8-76.8-33.28-76.8-76.8-76.8zM512 371.2c-15.36 0-25.6-10.24-25.6-25.6s10.24-25.6 25.6-25.6 25.6 10.24 25.6 25.6-10.24 25.6-25.6 25.6z" />
<glyph unicode="&#xe943;" glyph-name="shield" d="M512-38.4c0 0-2.56 0-2.56 0-5.12 0-432.64 66.56-432.64 488.96v458.24c0 15.36 10.24 25.6 25.6 25.6h819.2c15.36 0 25.6-10.24 25.6-25.6v-458.24c0-422.4-427.52-488.96-432.64-488.96 0 0-2.56 0-2.56 0zM128 883.2v-432.64c0-363.52 343.040-430.080 384-437.76 40.96 7.68 384 74.24 384 437.76v432.64h-768zM614.4 678.4h-307.2c-15.36 0-25.6 10.24-25.6 25.6s10.24 25.6 25.6 25.6h307.2c15.36 0 25.6-10.24 25.6-25.6s-10.24-25.6-25.6-25.6zM716.8 524.8h-409.6c-15.36 0-25.6 10.24-25.6 25.6s10.24 25.6 25.6 25.6h409.6c15.36 0 25.6-10.24 25.6-25.6s-10.24-25.6-25.6-25.6zM512 371.2h-204.8c-15.36 0-25.6 10.24-25.6 25.6s10.24 25.6 25.6 25.6h204.8c15.36 0 25.6-10.24 25.6-25.6s-10.24-25.6-25.6-25.6z" />
<glyph unicode="&#xe944;" glyph-name="stack" d="M512 601.6c-209.92 0-435.2 64-435.2 179.2s225.28 179.2 435.2 179.2 435.2-64 435.2-179.2-225.28-179.2-435.2-179.2zM512 908.8c-220.16 0-384-66.56-384-128s163.84-128 384-128 384 66.56 384 128-163.84 128-384 128zM921.6 448c-15.36 0-25.6 10.24-25.6 25.6v307.2c0 15.36 10.24 25.6 25.6 25.6s25.6-10.24 25.6-25.6v-307.2c0-15.36-10.24-25.6-25.6-25.6zM565.76 294.4h-53.76c-209.92 0-435.2 64-435.2 179.2v307.2c0 15.36 10.24 25.6 25.6 25.6s25.6-10.24 25.6-25.6v-307.2c0-61.44 163.84-128 384-128h53.76c15.36 0 25.6-10.24 25.6-25.6s-10.24-25.6-25.6-25.6zM565.76-12.8h-53.76c-209.92 0-435.2 64-435.2 179.2v307.2c0 15.36 10.24 25.6 25.6 25.6s25.6-10.24 25.6-25.6v-307.2c0-61.44 163.84-128 384-128h53.76c15.36 0 25.6-10.24 25.6-25.6s-10.24-25.6-25.6-25.6zM844.8-12.8h-128c-15.36 0-25.6 10.24-25.6 25.6s10.24 25.6 25.6 25.6h128c28.16 0 51.2 23.040 51.2 51.2s-23.040 51.2-51.2 51.2h-51.2c-56.32 0-102.4 46.080-102.4 102.4s46.080 102.4 102.4 102.4h128c15.36 0 25.6-10.24 25.6-25.6s-10.24-25.6-25.6-25.6h-128c-28.16 0-51.2-23.040-51.2-51.2s23.040-51.2 51.2-51.2h51.2c56.32 0 102.4-46.080 102.4-102.4s-46.080-102.4-102.4-102.4zM819.2-64c-15.36 0-25.6 10.24-25.6 25.6v51.2c0 15.36 10.24 25.6 25.6 25.6s25.6-10.24 25.6-25.6v-51.2c0-15.36-10.24-25.6-25.6-25.6zM819.2 294.4c-15.36 0-25.6 10.24-25.6 25.6v51.2c0 15.36 10.24 25.6 25.6 25.6s25.6-10.24 25.6-25.6v-51.2c0-15.36-10.24-25.6-25.6-25.6z" />
</font>
</defs>
</svg>
