<?xml version="1.0" standalone="no"?>
<!DOCTYPE svg PUBLIC "-//W3C//DTD SVG 1.1//EN" "http://www.w3.org/Graphics/SVG/1.1/DTD/svg11.dtd" >
<svg xmlns="http://www.w3.org/2000/svg" xmlns:xlink="http://www.w3.org/1999/xlink" version="1.1">
<metadata>
Created by Christoph Koeberlin (http://christoph.koe.berlin)
Copyright (c) 2018 Swiss Typefaces Sarl. All rights reserved.
</metadata>
<defs>
<font id="Font" horiz-adv-x="0" >
  <font-face 
    font-family="Font"
    font-weight="600"
    font-stretch="normal"
    units-per-em="1000"
    panose-1="2 11 7 4 0 0 0 0 0 0"
    ascent="800"
    descent="-200"
    x-height="500"
    cap-height="710"
    bbox="-371 -306 1067 1000"
    underline-thickness="100"
    underline-position="-184"
    unicode-range="U+0020-FB02"
  />
<missing-glyph horiz-adv-x="644" 
d="M72 710h500v-710h-500v710zM91 682v-654l220 327zM553 28v654l-221 -327zM106 691l216 -321l216 321h-432zM106 19h432l-216 320z" />
    <glyph glyph-name=".notdef" horiz-adv-x="644" 
d="M72 710h500v-710h-500v710zM91 682v-654l220 327zM553 28v654l-221 -327zM106 691l216 -321l216 321h-432zM106 19h432l-216 320z" />
    <glyph glyph-name="glyph1" 
 />
    <glyph glyph-name="glyph2" horiz-adv-x="228" 
 />
    <glyph glyph-name="space" unicode=" " horiz-adv-x="228" 
 />
    <glyph glyph-name="exclam" unicode="!" horiz-adv-x="288" 
d="M75 444v266h138v-266l-27 -188h-85zM143 -8q-42 0 -71 29t-29 71t29 71t71 29q21 0 39 -8t31.5 -21.5t21.5 -31.5t8 -39t-8 -39t-21.5 -31.5t-31.5 -21.5t-39 -8z" />
    <glyph glyph-name="quotedbl" unicode="&#x22;" horiz-adv-x="434" 
d="M58 710h116v-287h-116v287zM260 710h116v-287h-116v287z" />
    <glyph glyph-name="numbersign" unicode="#" horiz-adv-x="726" 
d="M382 185h-143l-58 -185h-117l58 185h-90v105h123l40 131h-90v105h124l56 184h119l-58 -184h142l57 184h118l-58 -184h89v-105h-122l-41 -131h91v-105h-124l-58 -185h-117zM272 290h143l39 131h-141z" />
    <glyph glyph-name="dollar" unicode="$" horiz-adv-x="536" 
d="M242 -9q-44 5 -81 21.5t-64 44.5t-42 66t-15 85h137q2 -35 20 -55t45 -28v172l-35 13q-36 13 -66.5 32.5t-53 45.5t-35 58.5t-12.5 72.5q0 89 54 143t148 59v77h54v-78q41 -6 75 -23.5t59 -44t38.5 -60.5t13.5 -71h-137q-9 48 -49 63v-158l35 -13q80 -30 125 -81.5
t45 -139.5q0 -91 -54.5 -144t-150.5 -58v-78h-54v79zM364 191q0 29 -17.5 48.5t-50.5 35.5v-153q29 4 48.5 22t19.5 47zM177 521q0 -26 16.5 -43t48.5 -31v141q-29 -5 -47 -22.5t-18 -44.5z" />
    <glyph glyph-name="percent" unicode="%" horiz-adv-x="980" 
d="M194 0l450 710h142l-450 -710h-142zM755 -8q-41 0 -77 15.5t-62.5 42.5t-42 62.5t-15.5 76.5t15.5 77t42 62.5t62.5 42t77 15.5q40 0 76 -15.5t63 -42t42.5 -62.5t15.5 -77t-15.5 -76.5t-42.5 -62.5t-63 -42.5t-76 -15.5zM755 108q34 0 56.5 24t22.5 57t-22.5 57
t-56.5 24t-57 -24t-23 -57t23 -57t57 -24zM225 324q-41 0 -77 15.5t-62.5 42.5t-42 62.5t-15.5 76.5t15.5 77t42 62.5t62.5 42t77 15.5q40 0 76 -15.5t63 -42t42.5 -62.5t15.5 -77t-15.5 -76.5t-42.5 -62.5t-63 -42.5t-76 -15.5zM225 440q34 0 57 24t23 57t-23 57t-57 24
t-57 -24t-23 -57t23 -57t57 -24z" />
    <glyph glyph-name="ampersand" unicode="&#x26;" horiz-adv-x="770" 
d="M299 -11q-59 0 -103 17t-73.5 46t-44.5 67.5t-15 82.5q0 35 9.5 63.5t26.5 51.5t40 42t49 36q-29 29 -52.5 65t-23.5 84q0 36 15 68t41.5 56.5t63.5 39t81 14.5q45 0 81.5 -15t62.5 -40t40 -56.5t14 -65.5q0 -32 -9 -57t-25.5 -45.5t-38.5 -37t-48 -31.5l116 -112l67 81
h164l-142 -167l183 -176h-180l-86 83q-52 -50 -102 -72t-111 -22zM298 110q31 0 61.5 13.5t64.5 44.5l-147 141q-45 -29 -62.5 -57.5t-17.5 -53.5q0 -23 9 -40t23.5 -27.5t32.5 -15.5t36 -5zM243 543q0 -27 18 -46t45 -43l2 1q35 17 51.5 35t16.5 49t-19 49t-46 18
t-47.5 -16.5t-20.5 -46.5z" />
    <glyph glyph-name="quotesingle" unicode="'" horiz-adv-x="232" 
d="M58 710h116v-287h-116v287z" />
    <glyph glyph-name="parenleft" unicode="(" horiz-adv-x="299" 
d="M167 -160q-128 232 -128 480t128 480h109q-64 -124 -92.5 -240.5t-28.5 -239.5t28.5 -239.5t92.5 -240.5h-109z" />
    <glyph glyph-name="parenright" unicode=")" horiz-adv-x="298" 
d="M22 -160q64 124 92.5 240.5t28.5 239.5t-28.5 239.5t-92.5 240.5h109q128 -232 128 -480t-128 -480h-109z" />
    <glyph glyph-name="asterisk" unicode="*" horiz-adv-x="492" 
d="M83 358l86 117l-138 45l29 91l139 -45v144h95v-144l138 45l29 -90l-138 -46l86 -117l-76 -55l-86 116l-87 -116z" />
    <glyph glyph-name="plus" unicode="+" horiz-adv-x="492" 
d="M36 349h151v151h119v-151h150v-119h-150v-151h-119v151h-151v119z" />
    <glyph glyph-name="comma" unicode="," horiz-adv-x="282" 
d="M108 -152h-81l73 152q-23 10 -41 34.5t-18 57.5q0 21 7.5 39t21 31.5t32 21.5t39.5 8q42 0 70.5 -29t28.5 -71q0 -17 -5.5 -33t-14.5 -31z" />
    <glyph glyph-name="hyphen" unicode="-" horiz-adv-x="400" 
d="M57 346h286v-132h-286v132z" />
    <glyph glyph-name="period" unicode="." horiz-adv-x="279" 
d="M139 -8q-42 0 -71 29t-29 71t29 71t71 29q21 0 39 -8t31.5 -21.5t21.5 -31.5t8 -39t-8 -39t-21.5 -31.5t-31.5 -21.5t-39 -8z" />
    <glyph glyph-name="slash" unicode="/" horiz-adv-x="546" 
d="M404 710h124l-386 -820h-124z" />
    <glyph glyph-name="zero" unicode="0" horiz-adv-x="631" 
d="M316 -11q-59 0 -107.5 21t-83.5 58.5t-54.5 89t-19.5 112.5v172q0 61 19.5 112t54.5 88.5t83.5 58.5t107.5 21q58 0 106.5 -21t83.5 -58.5t54.5 -88.5t19.5 -112v-172q0 -61 -19.5 -112.5t-54.5 -89t-83.5 -58.5t-106.5 -21zM316 124q57 0 92 38.5t35 107.5v172
q0 69 -35 107t-92 38t-92.5 -38t-35.5 -107v-172q0 -69 35.5 -107.5t92.5 -38.5z" />
    <glyph glyph-name="one" unicode="1" horiz-adv-x="368" 
d="M152 575h-150l100 135h187v-710h-137v575z" />
    <glyph glyph-name="two" unicode="2" horiz-adv-x="573" 
d="M525 0h-484v47q0 60 21 104t54.5 78.5t74 63t79.5 56.5q23 16 43.5 33t35.5 35t24 37t9 41q0 39 -24 65.5t-70 26.5q-47 0 -77.5 -28.5t-29.5 -71.5h-138q0 52 19 95.5t52 74.5t78.5 48t98.5 17q45 0 86 -14t72.5 -41.5t50.5 -68.5t19 -95q0 -46 -11 -81.5t-30.5 -64.5
t-47 -54t-61.5 -50q-17 -12 -37.5 -25.5t-40.5 -28.5t-36.5 -31t-23.5 -33h294v-135z" />
    <glyph glyph-name="three" unicode="3" horiz-adv-x="588" 
d="M299 -11q-51 0 -97.5 15.5t-83 46.5t-59 75.5t-24.5 103.5h136q5 -52 40 -79t88 -27q47 0 77 24t31 65q0 45 -31.5 70t-84.5 25h-60v112h54q50 0 75.5 23.5t26.5 61.5q1 37 -26 59.5t-66 22.5q-48 0 -79 -28t-30 -72h-138q0 55 21 99t55.5 74t79 46t91.5 16
q55 0 97.5 -16.5t72 -44.5t45 -65.5t15.5 -79.5q0 -52 -24 -92t-55 -61q40 -19 69.5 -60t29.5 -101q0 -47 -18 -86t-50 -67.5t-77.5 -44t-100.5 -15.5z" />
    <glyph glyph-name="four" unicode="4" horiz-adv-x="637" 
d="M371 162h-353v111l368 437h122v-422h93v-126h-93v-162h-137v162zM371 288v219l-185 -219h185z" />
    <glyph glyph-name="five" unicode="5" horiz-adv-x="572" 
d="M284 -11q-49 0 -93.5 16t-79.5 45t-56.5 68.5t-23.5 87.5h142q9 -35 39.5 -58.5t71.5 -23.5q53 0 82 32t29 78q0 47 -30.5 78.5t-78.5 31.5q-42 0 -70.5 -21t-40.5 -53l-121 37l80 403h346v-133h-240l-27 -133q18 11 43 17.5t55 6.5q51 0 91.5 -18t69.5 -50.5t44.5 -77.5
t15.5 -99q0 -53 -18 -96.5t-50.5 -74t-78 -47t-101.5 -16.5z" />
    <glyph glyph-name="six" unicode="6" horiz-adv-x="569" 
d="M282 -11q-57 0 -102.5 19t-77.5 52t-49.5 77.5t-17.5 96.5q0 27 5.5 49.5t16 44t25.5 44.5t35 51l212 287h169l-183 -249q39 -2 77.5 -17.5t69 -45t49.5 -71t19 -93.5t-17.5 -96.5t-49.5 -77.5t-78 -52t-103 -19zM282 121q24 0 44 8.5t35 23.5t23 35.5t8 43.5t-8 43.5
t-23 35.5t-35 24t-44 9t-44 -9t-34.5 -24t-22.5 -35.5t-8 -43.5t8 -43.5t22.5 -35.5t34.5 -23.5t44 -8.5z" />
    <glyph glyph-name="seven" unicode="7" horiz-adv-x="543" 
d="M45 0l321 577h-332v133h495v-118l-329 -592h-155z" />
    <glyph glyph-name="eight" unicode="8" horiz-adv-x="588" 
d="M294 -11q-54 0 -100 17t-79.5 47.5t-53 72.5t-19.5 92q0 60 23.5 102t67.5 68q-29 26 -45 62t-16 80q0 41 16 76.5t45 61t70 40t91 14.5t91 -14.5t70 -40t45 -61t16 -76.5q0 -44 -16 -79.5t-45 -61.5q43 -26 67 -68.5t24 -102.5q0 -50 -19.5 -92t-53 -72.5t-79.5 -47.5
t-100 -17zM294 116q26 0 46.5 8.5t35 23t22 33.5t7.5 40t-7.5 40t-22 33.5t-35 23t-46.5 8.5t-47 -8.5t-35 -23t-21.5 -33.5t-7.5 -40t7.5 -40t21.5 -33.5t35 -23t47 -8.5zM294 436q38 0 63.5 23.5t25.5 58.5t-25.5 58.5t-63.5 23.5t-63.5 -23.5t-25.5 -58.5t25.5 -58.5
t63.5 -23.5z" />
    <glyph glyph-name="nine" unicode="9" horiz-adv-x="569" 
d="M253 250q-39 1 -77 17t-68.5 45t-49.5 70.5t-19 94.5q0 52 17.5 96.5t50 77.5t78 52t102.5 19t102.5 -19t78 -52t50 -77.5t17.5 -96.5q0 -27 -5.5 -49.5t-16 -44.5t-26 -44.5t-35.5 -50.5l-212 -288h-170zM287 367q24 0 44 9t35 24t23 35.5t8 43.5t-8 43.5t-23 35.5
t-35 23.5t-44 8.5q-48 0 -79 -32t-31 -79q0 -23 8.5 -43.5t23 -35.5t34.5 -24t44 -9z" />
    <glyph glyph-name="colon" unicode=":" horiz-adv-x="299" 
d="M149 312q-42 0 -71 29t-29 71t29 71t71 29q21 0 39 -8t31.5 -21.5t21.5 -31.5t8 -39t-8 -39t-21.5 -31.5t-31.5 -21.5t-39 -8zM149 -8q-42 0 -71 29t-29 71t29 71t71 29q21 0 39 -8t31.5 -21.5t21.5 -31.5t8 -39t-8 -39t-21.5 -31.5t-31.5 -21.5t-39 -8z" />
    <glyph glyph-name="semicolon" unicode=";" horiz-adv-x="302" 
d="M119 -152h-81l73 152q-23 10 -41 34.5t-18 57.5q0 21 7.5 39t21 31.5t32 21.5t39.5 8q42 0 70.5 -29t28.5 -71q0 -17 -5.5 -33t-14.5 -31zM151 312q-42 0 -71 29t-29 71t29 71t71 29q21 0 39 -8t31.5 -21.5t21.5 -31.5t8 -39t-8 -39t-21.5 -31.5t-31.5 -21.5t-39 -8z" />
    <glyph glyph-name="equal" unicode="=" horiz-adv-x="541" 
d="M60 243h421v-118h-421v118zM60 454h421v-119h-421v119z" />
    <glyph glyph-name="question" unicode="?" horiz-adv-x="519" 
d="M166 276q0 45 24 76t63 58q17 12 33 22t28.5 21.5t20 25t7.5 32.5q0 35 -24 55.5t-59 20.5q-37 0 -65.5 -23t-28.5 -67h-137q0 46 18 87t49 72t73 48.5t91 17.5t89.5 -17t69.5 -45t45 -64.5t16 -76.5q0 -56 -20.5 -97t-69.5 -78q-38 -28 -62 -46t-24 -38v-3h-137v19z
M234 -8q-42 0 -71 29t-29 71t29 71t71 29q21 0 39 -8t31.5 -21.5t21.5 -31.5t8 -39t-8 -39t-21.5 -31.5t-31.5 -21.5t-39 -8z" />
    <glyph glyph-name="at" unicode="@" horiz-adv-x="803" 
d="M389 -11q-81 0 -145.5 27t-110 74.5t-69.5 111t-24 135.5q0 85 31.5 156t85 122t123.5 79t147 28q73 0 136 -22t109.5 -63.5t72.5 -100t26 -130.5q0 -65 -14.5 -112t-40 -77.5t-59 -45t-70.5 -14.5t-65 15.5t-42 35.5q-21 -23 -53 -36t-70 -13q-36 0 -65 13.5t-49.5 37
t-31 54.5t-10.5 67q0 45 15.5 85t42 70t63 47t78.5 17q41 0 68 -18t38 -41l10 49h98l-46 -220q-7 -33 -1 -56t36 -23q40 0 63 38.5t23 128.5q0 58 -21 102t-57 74t-84 45t-101 15q-59 0 -113.5 -20.5t-96.5 -60t-67 -96.5t-25 -130q0 -60 18.5 -109.5t53 -85.5t83.5 -55.5
t110 -19.5q45 0 91 8t87 28v-85q-44 -15 -90.5 -22t-87.5 -7zM378 251q41 0 67.5 26t34.5 66q5 24 2 45t-12.5 37t-25 25t-35.5 9q-41 0 -67.5 -26t-34.5 -67q-5 -24 -2 -45t12.5 -36.5t25 -24.5t35.5 -9z" />
    <glyph glyph-name="A" unicode="A" horiz-adv-x="743" 
d="M307 710h129l307 -710h-152l-69 162h-303l-68 -162h-150zM273 289h195l-97 230z" />
    <glyph glyph-name="B" unicode="B" horiz-adv-x="634" 
d="M79 710h260q45 0 83.5 -16.5t67 -44.5t44.5 -65.5t16 -79.5q0 -41 -15 -72.5t-41 -54.5q47 -23 76 -65.5t29 -102.5q0 -44 -16.5 -82.5t-46 -66.5t-70 -44t-87.5 -16h-300v710zM369 133q41 0 65 23t24 58t-24 58.5t-65 23.5h-145v-163h145zM325 419q38 0 61 23t23 56
q0 32 -23 56t-61 24h-101v-159h101z" />
    <glyph glyph-name="C" unicode="C" horiz-adv-x="780" 
d="M410 -12q-81 0 -149 28.5t-117.5 78t-77.5 116.5t-28 144t28 144t77.5 116.5t117.5 78t149 28.5q60 0 116 -18.5t101.5 -52t78.5 -80t48 -103.5h-157q-11 27 -30.5 48t-44.5 35.5t-53.5 22.5t-58.5 8q-51 0 -92.5 -17.5t-71.5 -48.5t-46 -72t-16 -89t16 -89t46 -72
t71.5 -48.5t92.5 -17.5q30 0 58.5 8t53.5 22.5t44.5 35.5t30.5 48h157q-15 -57 -48 -103.5t-78.5 -80t-101.5 -52t-116 -18.5z" />
    <glyph glyph-name="D" unicode="D" horiz-adv-x="716" 
d="M79 710h234q76 0 143 -27.5t116 -75.5t77.5 -113t28.5 -139t-28.5 -139t-77.5 -113t-116 -75.5t-143 -27.5h-234v710zM313 133q49 0 89.5 17.5t69 47.5t44.5 70.5t16 86.5t-16 86.5t-44.5 70.5t-69 47.5t-89.5 17.5h-89v-444h89z" />
    <glyph glyph-name="E" unicode="E" horiz-adv-x="568" 
d="M79 710h442v-138h-297v-146h237v-138h-237v-150h297v-138h-442v710z" />
    <glyph glyph-name="F" unicode="F" horiz-adv-x="542" 
d="M79 710h432v-138h-287v-147h225v-138h-225v-287h-145v710z" />
    <glyph glyph-name="G" unicode="G" horiz-adv-x="805" 
d="M412 -12q-81 0 -150 28.5t-118.5 78t-77.5 116.5t-28 144t28 144t77.5 116.5t117.5 78t149 28.5q56 0 108.5 -16t97 -45t78 -70t51.5 -91h-166q-26 39 -72 60.5t-97 21.5t-92.5 -17.5t-71.5 -48.5t-46 -72t-16 -89t16 -89t46 -72t72 -48.5t94 -17.5q87 0 137.5 43.5
t62.5 117.5h-217v136h367q12 -110 -11.5 -191.5t-72.5 -136.5t-118 -82t-148 -27z" />
    <glyph glyph-name="H" unicode="H" horiz-adv-x="756" 
d="M79 710h145v-283h308v283h145v-710h-145v289h-308v-289h-145v710z" />
    <glyph glyph-name="I" unicode="I" horiz-adv-x="303" 
d="M79 710h145v-710h-145v710z" />
    <glyph glyph-name="J" unicode="J" horiz-adv-x="547" 
d="M246 -12q-44 0 -85 13t-72.5 39.5t-50 67t-18.5 96.5h143q0 -41 24.5 -61t58.5 -20q33 0 58 19.5t25 61.5v506h144v-516q0 -54 -18.5 -93t-50 -64t-72.5 -37t-86 -12z" />
    <glyph glyph-name="K" unicode="K" horiz-adv-x="694" 
d="M223 322v-322h-144v710h144v-301l256 301h179l-292 -341l353 -369h-188z" />
    <glyph glyph-name="L" unicode="L" horiz-adv-x="551" 
d="M79 710h145v-572h304v-138h-449v710z" />
    <glyph glyph-name="M" unicode="M" horiz-adv-x="884" 
d="M211 710l231 -317l231 317h132v-710h-145v462l-218 -299l-218 299v-462h-145v710h132z" />
    <glyph glyph-name="N" unicode="N" horiz-adv-x="792" 
d="M588 0l-364 463v-463h-145v710h125l364 -463v463h145v-710h-125z" />
    <glyph glyph-name="O" unicode="O" horiz-adv-x="808" 
d="M404 128q46 0 86.5 18t70.5 49t47 72t17 88q0 46 -17 87.5t-47 72.5t-70.5 49t-86.5 18q-47 0 -87 -18t-70 -49t-47 -72.5t-17 -87.5q0 -47 17 -88t47 -72t70 -49t87 -18zM404 -12q-76 0 -143 29t-116.5 78.5t-78.5 116.5t-29 143t29 143t78.5 116.5t116.5 78.5t143 29
t143 -29t116.5 -78.5t78.5 -116.5t29 -143t-29 -143t-78.5 -116.5t-116.5 -78.5t-143 -29z" />
    <glyph glyph-name="P" unicode="P" horiz-adv-x="591" 
d="M564 471q0 -51 -18.5 -94.5t-52 -75.5t-79 -50.5t-99.5 -18.5h-91v-232h-145v710h236q54 0 99.5 -18.5t79 -50.5t52 -75.5t18.5 -94.5zM423 471q0 44 -30 73.5t-80 29.5h-89v-206h89q50 0 80 29.5t30 73.5z" />
    <glyph glyph-name="Q" unicode="Q" horiz-adv-x="840" 
d="M404 -12q-76 0 -143 29t-116.5 78.5t-78.5 116.5t-29 143t29 143t78.5 116.5t116.5 78.5t143 29t143 -29t116.5 -78.5t78.5 -116.5t29 -143q0 -55 -15.5 -105.5t-42.5 -93.5l189 -156h-204l-74 61q-46 -35 -101.5 -54t-118.5 -19zM404 128q58 0 106 28l-104 87l83 100
l111 -93q25 50 25 105q0 46 -17 87.5t-47 72.5t-70.5 49t-86.5 18q-47 0 -87 -18t-70 -49t-47 -72.5t-17 -87.5q0 -47 17 -88t47 -72t70 -49t87 -18z" />
    <glyph glyph-name="R" unicode="R" horiz-adv-x="656" 
d="M79 710h272q50 0 90 -16t68.5 -44.5t44 -67t15.5 -82.5q0 -72 -37.5 -117.5t-108.5 -67.5l255 -315h-175l-244 299h-35v-299h-145v710zM334 423q41 0 66 20.5t25 56.5q0 37 -25 57t-66 20h-110v-154h110z" />
    <glyph glyph-name="S" unicode="S" horiz-adv-x="593" 
d="M307 -12q-64 0 -113.5 20t-84.5 52.5t-54 74t-21 85.5h145q8 -48 44 -73t84 -25q44 0 72.5 19t28.5 53q0 29 -22 50.5t-73 35.5l-75 22q-85 24 -135 76.5t-51 133.5q0 49 17 88t48.5 66t75.5 41.5t97 14.5q57 0 102.5 -19t77.5 -49.5t49.5 -69t19.5 -78.5h-144
q-12 45 -42.5 63.5t-62.5 18.5q-38 0 -64.5 -17t-27.5 -49q-1 -33 22 -52.5t67 -32.5l83 -23q87 -24 135.5 -78t48.5 -137q0 -45 -17.5 -84t-50 -67t-78 -44t-101.5 -16z" />
    <glyph glyph-name="T" unicode="T" horiz-adv-x="568" 
d="M210 572h-189v138h526v-138h-191v-572h-146v572z" />
    <glyph glyph-name="U" unicode="U" horiz-adv-x="720" 
d="M360 -12q-64 0 -117 20.5t-91.5 59t-59.5 92.5t-21 120v430h145v-432q0 -71 39.5 -110.5t104.5 -39.5t104.5 39.5t39.5 110.5v432h145v-430q0 -66 -21.5 -120t-60 -92.5t-91.5 -59t-116 -20.5z" />
    <glyph glyph-name="V" unicode="V" horiz-adv-x="721" 
d="M3 710h157l201 -493l198 493h160l-294 -710h-129z" />
    <glyph glyph-name="W" unicode="W" horiz-adv-x="961" 
d="M481 377l-156 -377h-136l-171 710h154l108 -472l201 484l201 -484l108 472h154l-171 -710h-136z" />
    <glyph glyph-name="X" unicode="X" horiz-adv-x="697" 
d="M-6 0l267 359l-252 351h168l171 -239l172 239h168l-253 -351l268 -359h-170l-185 246l-184 -246h-170z" />
    <glyph glyph-name="Y" unicode="Y" horiz-adv-x="690" 
d="M272 299l-262 411h168l166 -269l167 269h169l-263 -412v-298h-145v299z" />
    <glyph glyph-name="Z" unicode="Z" horiz-adv-x="618" 
d="M38 99l339 473h-333v138h529v-99l-341 -473h348v-138h-542v99z" />
    <glyph glyph-name="bracketleft" unicode="[" horiz-adv-x="325" 
d="M76 800h221v-100h-105v-760h105v-100h-221v960z" />
    <glyph glyph-name="bracketright" unicode="]" horiz-adv-x="325" 
d="M249 -160h-221v100h105v760h-105v100h221v-960z" />
    <glyph glyph-name="underscore" unicode="_" horiz-adv-x="515" 
d="M41 0h433v-105h-433v105z" />
    <glyph glyph-name="grave" unicode="`" 
d="M-132 750h159l106 -190h-102z" />
    <glyph glyph-name="a" unicode="a" horiz-adv-x="617" 
d="M269 -11q-50 0 -93 21t-74.5 56.5t-49.5 83t-18 100.5t18 100.5t49.5 83t74.5 56.5t93 21q52 0 89.5 -21.5t54.5 -45.5v56h137v-500h-137v56q-17 -24 -54.5 -45.5t-89.5 -21.5zM298 114q57 0 91.5 38.5t34.5 97.5t-34.5 97.5t-91.5 38.5t-91.5 -38.5t-34.5 -97.5
t34.5 -97.5t91.5 -38.5z" />
    <glyph glyph-name="b" unicode="b" horiz-adv-x="617" 
d="M348 -11q-52 0 -90 21.5t-55 45.5v-56h-137v750h137v-306q17 24 55 45.5t90 21.5q50 0 93 -21t74.5 -56.5t49.5 -83t18 -100.5t-18 -100.5t-49.5 -83t-74.5 -56.5t-93 -21zM318 114q57 0 91.5 38.5t34.5 97.5t-34.5 97.5t-91.5 38.5t-91.5 -38.5t-34.5 -97.5t34.5 -97.5
t91.5 -38.5z" />
    <glyph glyph-name="c" unicode="c" horiz-adv-x="580" 
d="M297 -11q-57 0 -105 20.5t-83.5 55.5t-55 83t-19.5 102t19.5 102t55 83t83.5 55.5t105 20.5q52 0 94.5 -15.5t75 -42.5t54.5 -64t32 -80h-142q-14 34 -42 56t-72 22q-27 0 -50 -9.5t-39.5 -27.5t-26 -43.5t-9.5 -56.5t9.5 -56.5t26 -43.5t39.5 -27.5t50 -9.5q44 0 72 22
t42 56h142q-10 -43 -32 -80t-54.5 -64t-75 -42.5t-94.5 -15.5z" />
    <glyph glyph-name="d" unicode="d" horiz-adv-x="617" 
d="M269 -11q-50 0 -93 21t-74.5 56.5t-49.5 83t-18 100.5t18 100.5t49.5 83t74.5 56.5t93 21q52 0 89.5 -21.5t54.5 -45.5v306h137v-750h-137v56q-17 -24 -54.5 -45.5t-89.5 -21.5zM298 114q57 0 91.5 38.5t34.5 97.5t-34.5 97.5t-91.5 38.5t-91.5 -38.5t-34.5 -97.5
t34.5 -97.5t91.5 -38.5z" />
    <glyph glyph-name="e" unicode="e" horiz-adv-x="592" 
d="M296 -11q-57 0 -105.5 19.5t-83 54.5t-54 83t-19.5 105q0 56 19.5 103.5t55 82.5t83.5 54.5t105 19.5q55 0 103.5 -19.5t84.5 -56.5t56 -92t17 -125h-390q2 -22 11 -42t26 -35t41.5 -24t56.5 -9q36 0 65 14.5t41 40.5h143q-11 -38 -34.5 -70t-57 -55t-75 -36t-89.5 -13z
M293 400q-48 0 -79 -25t-41 -67h235q-6 25 -18.5 42.5t-28 28.5t-33 16t-35.5 5z" />
    <glyph glyph-name="f" unicode="f" horiz-adv-x="412" 
d="M119 380h-101v120h101v65q0 46 15 81.5t41 60t60.5 37t74.5 12.5q29 0 49.5 -3t37.5 -8v-121q-24 9 -56 9q-45 0 -65 -19.5t-20 -65.5v-48h141v-120h-141v-380h-137v380z" />
    <glyph glyph-name="g" unicode="g" horiz-adv-x="618" 
d="M299 -219q-53 0 -96.5 14.5t-75 39.5t-50 59.5t-22.5 74.5h134q25 -74 113 -74q22 0 42.5 7.5t36.5 22t25 36.5t9 52v59q-20 -28 -58.5 -47t-86.5 -19q-49 0 -92 19.5t-75 54t-50.5 80t-18.5 98.5t18.5 99t50.5 80.5t75 54t92 19.5q48 0 86.5 -19t58.5 -48v56h137v-469
q0 -68 -21.5 -115.5t-56.5 -77.5t-80.5 -43.5t-94.5 -13.5zM299 130q26 0 49 9.5t40.5 26t27.5 40t10 52.5t-10 52.5t-27.5 40.5t-40.5 26t-49 9t-49 -9t-40.5 -26t-27.5 -40.5t-10 -52.5t10 -52.5t27.5 -40t40.5 -26t49 -9.5z" />
    <glyph glyph-name="h" unicode="h" horiz-adv-x="599" 
d="M66 0v750h137v-307q20 30 57 49t86 19q45 0 81 -16t61 -44.5t38 -68.5t13 -89v-293h-137v270q0 54 -22.5 85t-65.5 31q-48 0 -79.5 -35t-31.5 -107v-244h-137z" />
    <glyph glyph-name="i" unicode="i" horiz-adv-x="269" 
d="M134 582q-18 0 -33.5 7t-27.5 18.5t-19 27.5t-7 34t7 34t19 27.5t27.5 18.5t33.5 7q37 0 62.5 -25.5t25.5 -61.5t-25.5 -61.5t-62.5 -25.5zM66 500h137v-500h-137v500z" />
    <glyph glyph-name="j" unicode="j" horiz-adv-x="277" 
d="M211 -38q0 -46 -15 -80t-40.5 -56.5t-59.5 -33.5t-71 -11q-16 0 -30.5 1t-25.5 3v117q5 -1 12.5 -1.5t13.5 -0.5q38 0 58.5 19t20.5 65v516h137v-538zM142 582q-18 0 -33.5 7t-27.5 18.5t-19 27.5t-7 34t7 34t19 27.5t27.5 18.5t33.5 7q37 0 62.5 -25.5t25.5 -61.5
t-25.5 -61.5t-62.5 -25.5z" />
    <glyph glyph-name="k" unicode="k" horiz-adv-x="556" 
d="M203 230v-230h-137v750h137v-434l162 184h165l-198 -225l244 -275h-169z" />
    <glyph glyph-name="l" unicode="l" horiz-adv-x="269" 
d="M66 750h137v-750h-137v750z" />
    <glyph glyph-name="m" unicode="m" horiz-adv-x="893" 
d="M696 267q0 56 -18.5 87.5t-59.5 31.5q-44 0 -71 -33t-29 -102v-251h-137v267q0 56 -18.5 87.5t-59.5 31.5q-45 0 -72.5 -35t-27.5 -107v-244h-137v500h137v-57q20 29 53.5 48.5t79.5 19.5q54 0 93 -24.5t62 -67.5q12 23 29.5 40t38.5 28.5t43.5 17.5t43.5 6
q90 0 138.5 -59.5t48.5 -161.5v-290h-137v267z" />
    <glyph glyph-name="n" unicode="n" horiz-adv-x="599" 
d="M66 500h137v-57q20 30 57 49t86 19q45 0 81 -16t61 -44.5t38 -68.5t13 -89v-293h-137v270q0 54 -22.5 85t-65.5 31q-48 0 -79.5 -35t-31.5 -107v-244h-137v500z" />
    <glyph glyph-name="o" unicode="o" horiz-adv-x="592" 
d="M296 -11q-54 0 -102 20t-84 55.5t-56.5 83t-20.5 102.5t20.5 102.5t56.5 82.5t84 55.5t102 20.5t102 -20.5t84 -55.5t56.5 -82.5t20.5 -102.5t-20.5 -102.5t-56.5 -83t-84 -55.5t-102 -20zM296 117q27 0 49.5 10t39 27.5t26 42t9.5 53.5t-9.5 53.5t-26 42t-39 27.5
t-49.5 10t-50 -10t-39.5 -27.5t-26 -42t-9.5 -53.5t9.5 -53.5t26 -42t39.5 -27.5t50 -10z" />
    <glyph glyph-name="p" unicode="p" horiz-adv-x="617" 
d="M66 -209v709h137v-56q17 24 55 45.5t90 21.5q50 0 93 -21t74.5 -56.5t49.5 -83t18 -100.5t-18 -100.5t-49.5 -83t-74.5 -56.5t-93 -21q-52 0 -90 21.5t-55 45.5v-265h-137zM318 114q57 0 91.5 38.5t34.5 97.5t-34.5 97.5t-91.5 38.5t-91.5 -38.5t-34.5 -97.5t34.5 -97.5
t91.5 -38.5z" />
    <glyph glyph-name="q" unicode="q" horiz-adv-x="617" 
d="M413 -209v265q-17 -24 -54.5 -45.5t-89.5 -21.5q-50 0 -93 21t-74.5 56.5t-49.5 83t-18 100.5t18 100.5t49.5 83t74.5 56.5t93 21q52 0 89.5 -21.5t54.5 -45.5v56h137v-709h-137zM298 114q57 0 91.5 38.5t34.5 97.5t-34.5 97.5t-91.5 38.5t-91.5 -38.5t-34.5 -97.5
t34.5 -97.5t91.5 -38.5z" />
    <glyph glyph-name="r" unicode="r" horiz-adv-x="395" 
d="M66 500h137v-80q13 37 47.5 61.5t76.5 24.5q11 0 22 -1t24 -5v-139q-16 5 -30.5 8t-31.5 3q-49 0 -78.5 -35.5t-29.5 -97.5v-239h-137v500z" />
    <glyph glyph-name="s" unicode="s" horiz-adv-x="501" 
d="M259 -11q-48 0 -89 13t-70.5 35.5t-47 53.5t-19.5 68h143q4 -33 29 -49t58 -16q32 0 48.5 11t16.5 29q0 20 -15 31t-48 19l-94 24q-66 17 -96.5 58.5t-30.5 96.5q0 32 14 59.5t40 47t63 30.5t84 11q41 0 76.5 -10.5t62.5 -31t43.5 -50t19.5 -66.5h-138q-5 29 -24 40
t-42 11q-26 0 -42.5 -10t-16.5 -28q0 -21 17 -31t40 -15l88 -24q74 -19 106.5 -57.5t32.5 -97.5q0 -35 -15.5 -63.5t-43.5 -48t-66.5 -30t-83.5 -10.5z" />
    <glyph glyph-name="t" unicode="t" horiz-adv-x="427" 
d="M308 -6q-40 0 -74.5 11t-60.5 33.5t-41 56.5t-15 80v205h-101v120h101v139h137v-139h141v-120h-141v-178q0 -46 20 -65.5t65 -19.5q32 0 56 9v-121q-17 -5 -37.5 -8t-49.5 -3z" />
    <glyph glyph-name="u" unicode="u" horiz-adv-x="588" 
d="M248 -11q-45 0 -80 16t-59 45t-36.5 69.5t-12.5 90.5v290h137v-267q0 -57 20 -88t65 -31q46 0 74.5 34.5t28.5 107.5v244h137v-500h-137v57q-20 -30 -54.5 -49t-82.5 -19z" />
    <glyph glyph-name="v" unicode="v" horiz-adv-x="570" 
d="M1 500h151l132 -320l132 320h153l-222 -500h-125z" />
    <glyph glyph-name="w" unicode="w" horiz-adv-x="800" 
d="M400 284l-93 -284h-136l-166 500h146l95 -320l101 320h105l102 -320l94 320h147l-165 -500h-136z" />
    <glyph glyph-name="x" unicode="x" horiz-adv-x="567" 
d="M284 147l-116 -147h-165l194 245l-189 255h162l113 -153l113 153h163l-189 -255l194 -245h-164z" />
    <glyph glyph-name="y" unicode="y" horiz-adv-x="570" 
d="M107 -209l105 237l-210 472h150l134 -324l133 324h151l-314 -709h-149z" />
    <glyph glyph-name="z" unicode="z" horiz-adv-x="498" 
d="M41 107l234 269h-231v124h408v-108l-234 -268h242v-124h-419v107z" />
    <glyph glyph-name="braceleft" unicode="{" horiz-adv-x="340" 
d="M231 -160q-67 0 -103.5 38t-36.5 104v229q0 25 -11.5 42t-42.5 17h-9v100h9q31 0 42.5 16t11.5 41v231q0 66 36.5 104t103.5 38h82v-100h-48q-32 0 -44.5 -14t-12.5 -47v-218q0 -45 -16.5 -69t-44.5 -32q28 -8 44.5 -33t16.5 -70v-216q0 -33 12.5 -47t44.5 -14h48v-100
h-82z" />
    <glyph glyph-name="bar" unicode="|" horiz-adv-x="267" 
d="M75 710h116v-820h-116v820z" />
    <glyph glyph-name="braceright" unicode="}" horiz-adv-x="340" 
d="M27 -160v100h48q32 0 44.5 14t12.5 47v216q0 45 16.5 70t44.5 33q-28 8 -44.5 32t-16.5 69v218q0 33 -12.5 47t-44.5 14h-48v100h82q67 0 103.5 -38t36.5 -104v-231q0 -25 11.5 -41t42.5 -16h9v-100h-9q-31 0 -42.5 -17t-11.5 -42v-229q0 -66 -36.5 -104t-103.5 -38h-82z
" />
    <glyph glyph-name="uni00A0" unicode="&#xa0;" horiz-adv-x="228" 
 />
    <glyph glyph-name="exclamdown" unicode="&#xa1;" horiz-adv-x="277" 
d="M207 59v-268h-138v268l27 188h84zM138 311q-42 0 -71 29t-29 71t29 71t71 29q21 0 39 -8t31.5 -21.5t21.5 -31.5t8 -39t-8 -39t-21.5 -31.5t-31.5 -21.5t-39 -8z" />
    <glyph glyph-name="sterling" unicode="&#xa3;" horiz-adv-x="588" 
d="M46 386h71q-10 30 -17 60.5t-7 62.5q0 38 16.5 76t46 68.5t70.5 49.5t91 19q49 0 91 -19t72 -51t47.5 -73.5t18.5 -87.5h-137q0 40 -26 68t-66 28q-38 0 -62.5 -24t-24.5 -65q0 -27 8.5 -55t19.5 -57h171v-56h-152q8 -23 12.5 -48t4.5 -51q0 -22 -6 -46t-21 -50h279v-135
h-500v135h89q23 43 23 92q0 25 -6.5 50.5t-14.5 52.5h-91v56z" />
    <glyph glyph-name="yen" unicode="&#xa5;" horiz-adv-x="722" 
d="M77 355h178l-230 355h167l168 -274l169 274h167l-230 -355h178v-57h-215v-75h215v-57h-215v-166h-137v166h-215v57h215v75h-215v57z" />
    <glyph glyph-name="dieresis" unicode="&#xa8;" 
d="M-117 577q-32 0 -54 22t-22 53q0 32 22 54t54 22q31 0 53 -22t22 -54q0 -31 -22 -53t-53 -22zM118 577q-32 0 -54 22t-22 53q0 32 22 54t54 22q31 0 53 -22t22 -54q0 -31 -22 -53t-53 -22z" />
    <glyph glyph-name="copyright" unicode="&#xa9;" horiz-adv-x="807" 
d="M407 163q-42 0 -78 15t-62 40.5t-40.5 60.5t-14.5 76q0 40 14.5 75t40.5 61t62 41t78 15q31 0 60 -9.5t53.5 -27t42 -42t25.5 -55.5h-91q-12 26 -37 39.5t-53 13.5q-51 0 -80.5 -32.5t-29.5 -78.5q0 -47 29.5 -79t80.5 -32q28 0 53 13.5t37 39.5h91q-8 -31 -25.5 -56
t-42 -42t-53.5 -26.5t-60 -9.5zM403 72q58 0 110 22.5t90 60.5t60.5 89.5t22.5 110.5q0 58 -22.5 110t-60.5 90t-90 60.5t-110 22.5t-109.5 -22.5t-89.5 -60.5t-60.5 -90t-22.5 -110q0 -59 22.5 -110.5t60.5 -89.5t89.5 -60.5t109.5 -22.5zM403 -12q-75 0 -142 29t-116.5 79
t-78.5 116.5t-29 142.5t29 142.5t78.5 116.5t116.5 79t142 29q76 0 142.5 -29t116.5 -79t79 -116.5t29 -142.5t-29 -142.5t-79 -116.5t-116.5 -79t-142.5 -29z" />
    <glyph glyph-name="guillemotleft" unicode="&#xab;" horiz-adv-x="525" 
d="M373 467h118l-116 -217l116 -217h-118l-141 217zM170 467h118l-116 -217l116 -217h-118l-141 217z" />
    <glyph glyph-name="uni00AD" unicode="&#xad;" horiz-adv-x="400" 
d="M57 346h286v-132h-286v132z" />
    <glyph glyph-name="macron" unicode="&#xaf;" 
d="M-171 710h342v-97h-342v97z" />
    <glyph glyph-name="degree" unicode="&#xb0;" horiz-adv-x="374" 
d="M188 498q26 0 44 18t18 44t-18 44t-44 18q-27 0 -45 -18t-18 -44t18 -44t45 -18zM188 406q-32 0 -60 12t-49 33t-33 49t-12 60t12 60t33 49t49 33t60 12q31 0 59 -12t49 -33t33 -49t12 -60t-12 -60t-33 -49t-49 -33t-59 -12z" />
    <glyph glyph-name="acute" unicode="&#xb4;" 
d="M-27 750h159l-163 -190h-102z" />
    <glyph glyph-name="periodcentered" unicode="&#xb7;" horiz-adv-x="289" 
d="M144 180q-42 0 -71 29t-29 71t29 71t71 29q21 0 39 -8t31.5 -21.5t21.5 -31.5t8 -39t-8 -39t-21.5 -31.5t-31.5 -21.5t-39 -8z" />
    <glyph glyph-name="cedilla" unicode="&#xb8;" 
d="M-118 -141q16 -9 37 -13t39 -4q21 0 41.5 6.5t20.5 26.5q0 14 -12 21t-32 7q-9 0 -20 -2.5t-21 -7.5l-35 19l55 91h62l-31 -51q11 3 22 5t25 2q36 0 60.5 -20.5t24.5 -58.5q0 -23 -11.5 -41t-30.5 -31t-43.5 -20t-50.5 -7q-22 0 -48.5 2.5t-51.5 12.5v63z" />
    <glyph glyph-name="guillemotright" unicode="&#xbb;" horiz-adv-x="525" 
d="M496 250l-141 -217h-118l116 217l-116 217h118zM293 250l-141 -217h-118l116 217l-116 217h118z" />
    <glyph glyph-name="questiondown" unicode="&#xbf;" horiz-adv-x="511" 
d="M348 227q0 -45 -24 -76t-63 -58q-17 -12 -33 -22.5t-28.5 -21.5t-20 -24.5t-7.5 -32.5q0 -35 24 -55.5t59 -20.5q37 0 65.5 23t28.5 67h137q0 -47 -18 -87.5t-49 -71.5t-73 -48.5t-91 -17.5t-89.5 17t-69.5 45t-45 64.5t-16 76.5q0 56 20.5 97t69.5 78q38 28 62 46t24 38
v3h137v-19zM280 511q42 0 71 -29t29 -71t-29 -71t-71 -29q-21 0 -39.5 8t-32 21.5t-21 31.5t-7.5 39t7.5 39t21 31.5t32 21.5t39.5 8z" />
    <glyph glyph-name="Agrave" unicode="&#xc0;" horiz-adv-x="743" 
d="M307 710h129l307 -710h-152l-69 162h-303l-68 -162h-150zM273 289h195l-97 230zM314 770l-123 157h154l72 -157h-103z" />
    <glyph glyph-name="Aacute" unicode="&#xc1;" horiz-adv-x="743" 
d="M307 710h129l307 -710h-152l-69 162h-303l-68 -162h-150zM273 289h195l-97 230zM400 927h154l-123 -157h-103z" />
    <glyph glyph-name="Acircumflex" unicode="&#xc2;" horiz-adv-x="743" 
d="M307 710h129l307 -710h-152l-69 162h-303l-68 -162h-150zM273 289h195l-97 230zM198 872l174 73l174 -73v-109l-174 72l-174 -72v109z" />
    <glyph glyph-name="Atilde" unicode="&#xc3;" horiz-adv-x="743" 
d="M307 710h129l307 -710h-152l-69 162h-303l-68 -162h-150zM273 289h195l-97 230zM187 804q8 54 42.5 83t75.5 29q22 0 41.5 -7t35.5 -16t29.5 -16t25.5 -7q20 0 29 12t15 35h79l-4 -26q-8 -54 -42.5 -83t-75.5 -29q-23 0 -42 7t-35 16t-29.5 16t-25.5 7q-20 0 -29 -12
t-15 -35h-79z" />
    <glyph glyph-name="Adieresis" unicode="&#xc4;" horiz-adv-x="743" 
d="M307 710h129l307 -710h-152l-69 162h-303l-68 -162h-150zM273 289h195l-97 230zM255 772q-32 0 -54 22t-22 53q0 32 22 54t54 22q31 0 53 -22t22 -54q0 -31 -22 -53t-53 -22zM490 772q-32 0 -54 22t-22 53q0 32 22 54t54 22q31 0 53 -22t22 -54q0 -31 -22 -53t-53 -22z
" />
    <glyph glyph-name="Aring" unicode="&#xc5;" horiz-adv-x="743" 
d="M307 710h129l307 -710h-152l-69 162h-303l-68 -162h-150zM273 289h195l-97 230zM373 753q-25 0 -47 9.5t-38.5 26t-26.5 38t-10 46.5t10 46.5t26.5 38t38.5 26t47 9.5t47 -9.5t38.5 -26t26.5 -38t10 -46.5t-10 -46.5t-26.5 -38t-38.5 -26t-47 -9.5zM373 815q25 0 42 17
t17 41t-17 41t-42 17t-42 -17t-17 -41t17 -41t42 -17z" />
    <glyph glyph-name="AE" unicode="&#xc6;" horiz-adv-x="941" 
d="M452 162h-231l-90 -162h-158l401 710h520v-138h-297v-146h237v-138h-237v-150h297v-138h-442v162zM292 289h160v283h-2z" />
    <glyph glyph-name="Ccedilla" unicode="&#xc7;" horiz-adv-x="780" 
d="M410 -12q-81 0 -149 28.5t-117.5 78t-77.5 116.5t-28 144t28 144t77.5 116.5t117.5 78t149 28.5q60 0 116 -18.5t101.5 -52t78.5 -80t48 -103.5h-157q-11 27 -30.5 48t-44.5 35.5t-53.5 22.5t-58.5 8q-51 0 -92.5 -17.5t-71.5 -48.5t-46 -72t-16 -89t16 -89t46 -72
t71.5 -48.5t92.5 -17.5q30 0 58.5 8t53.5 22.5t44.5 35.5t30.5 48h157q-15 -57 -48 -103.5t-78.5 -80t-101.5 -52t-116 -18.5zM287 -141q16 -9 37 -13t39 -4q21 0 41.5 6.5t20.5 26.5q0 14 -12 21t-32 7q-9 0 -20 -2.5t-21 -7.5l-35 19l55 91h62l-31 -51q12 3 22.5 5t24.5 2
q36 0 60.5 -20.5t24.5 -58.5q0 -23 -11.5 -41t-30.5 -31t-43.5 -20t-50.5 -7q-21 0 -48 2.5t-52 12.5v63z" />
    <glyph glyph-name="Egrave" unicode="&#xc8;" horiz-adv-x="568" 
d="M79 710h442v-138h-297v-146h237v-138h-237v-150h297v-138h-442v710zM242 770l-123 157h154l72 -157h-103z" />
    <glyph glyph-name="Eacute" unicode="&#xc9;" horiz-adv-x="568" 
d="M79 710h442v-138h-297v-146h237v-138h-237v-150h297v-138h-442v710zM327 927h154l-123 -157h-103z" />
    <glyph glyph-name="Ecircumflex" unicode="&#xca;" horiz-adv-x="568" 
d="M79 710h442v-138h-297v-146h237v-138h-237v-150h297v-138h-442v710zM125 872l174 73l174 -73v-109l-174 72l-174 -72v109z" />
    <glyph glyph-name="Edieresis" unicode="&#xcb;" horiz-adv-x="568" 
d="M79 710h442v-138h-297v-146h237v-138h-237v-150h297v-138h-442v710zM182 772q-32 0 -54 22t-22 53q0 32 22 54t54 22q31 0 53 -22t22 -54q0 -31 -22 -53t-53 -22zM417 772q-32 0 -54 22t-22 53q0 32 22 54t54 22q31 0 53 -22t22 -54q0 -31 -22 -53t-53 -22z" />
    <glyph glyph-name="Igrave" unicode="&#xcc;" horiz-adv-x="303" 
d="M79 710h145v-710h-145v710zM94 770l-123 157h154l72 -157h-103z" />
    <glyph glyph-name="Iacute" unicode="&#xcd;" horiz-adv-x="303" 
d="M79 710h145v-710h-145v710zM180 927h154l-123 -157h-103z" />
    <glyph glyph-name="Icircumflex" unicode="&#xce;" horiz-adv-x="303" 
d="M79 710h145v-710h-145v710zM-22 872l174 73l174 -73v-109l-174 72l-174 -72v109z" />
    <glyph glyph-name="Idieresis" unicode="&#xcf;" horiz-adv-x="303" 
d="M79 710h145v-710h-145v710zM35 772q-32 0 -54 22t-22 53q0 32 22 54t54 22q31 0 53 -22t22 -54q0 -31 -22 -53t-53 -22zM270 772q-32 0 -54 22t-22 53q0 32 22 54t54 22q31 0 53 -22t22 -54q0 -31 -22 -53t-53 -22z" />
    <glyph glyph-name="Eth" unicode="&#xd0;" horiz-adv-x="731" 
d="M94 710h234q76 0 143 -27.5t116 -75.5t77.5 -113t28.5 -139t-28.5 -139t-77.5 -113t-116 -75.5t-143 -27.5h-234v710zM328 133q49 0 89.5 17.5t69 47.5t44.5 70.5t16 86.5t-16 86.5t-44.5 70.5t-69 47.5t-89.5 17.5h-89v-444h89zM22 421h345v-126h-345v126z" />
    <glyph glyph-name="Ntilde" unicode="&#xd1;" horiz-adv-x="792" 
d="M588 0l-364 463v-463h-145v710h125l364 -463v463h145v-710h-125zM210 804q8 54 42.5 83t75.5 29q22 0 41.5 -7t35.5 -16t29.5 -16t25.5 -7q20 0 29 12t15 35h79l-4 -26q-8 -54 -42.5 -83t-75.5 -29q-23 0 -42 7t-35 16t-29.5 16t-25.5 7q-20 0 -29 -12t-15 -35h-79z" />
    <glyph glyph-name="Ograve" unicode="&#xd2;" horiz-adv-x="808" 
d="M404 128q46 0 86.5 18t70.5 49t47 72t17 88q0 46 -17 87.5t-47 72.5t-70.5 49t-86.5 18q-47 0 -87 -18t-70 -49t-47 -72.5t-17 -87.5q0 -47 17 -88t47 -72t70 -49t87 -18zM404 -12q-76 0 -143 29t-116.5 78.5t-78.5 116.5t-29 143t29 143t78.5 116.5t116.5 78.5t143 29
t143 -29t116.5 -78.5t78.5 -116.5t29 -143t-29 -143t-78.5 -116.5t-116.5 -78.5t-143 -29zM346 770l-123 157h154l72 -157h-103z" />
    <glyph glyph-name="Oacute" unicode="&#xd3;" horiz-adv-x="808" 
d="M404 128q46 0 86.5 18t70.5 49t47 72t17 88q0 46 -17 87.5t-47 72.5t-70.5 49t-86.5 18q-47 0 -87 -18t-70 -49t-47 -72.5t-17 -87.5q0 -47 17 -88t47 -72t70 -49t87 -18zM404 -12q-76 0 -143 29t-116.5 78.5t-78.5 116.5t-29 143t29 143t78.5 116.5t116.5 78.5t143 29
t143 -29t116.5 -78.5t78.5 -116.5t29 -143t-29 -143t-78.5 -116.5t-116.5 -78.5t-143 -29zM432 927h154l-123 -157h-103z" />
    <glyph glyph-name="Ocircumflex" unicode="&#xd4;" horiz-adv-x="808" 
d="M404 128q46 0 86.5 18t70.5 49t47 72t17 88q0 46 -17 87.5t-47 72.5t-70.5 49t-86.5 18q-47 0 -87 -18t-70 -49t-47 -72.5t-17 -87.5q0 -47 17 -88t47 -72t70 -49t87 -18zM404 -12q-76 0 -143 29t-116.5 78.5t-78.5 116.5t-29 143t29 143t78.5 116.5t116.5 78.5t143 29
t143 -29t116.5 -78.5t78.5 -116.5t29 -143t-29 -143t-78.5 -116.5t-116.5 -78.5t-143 -29zM230 872l174 73l174 -73v-109l-174 72l-174 -72v109z" />
    <glyph glyph-name="Otilde" unicode="&#xd5;" horiz-adv-x="808" 
d="M404 128q46 0 86.5 18t70.5 49t47 72t17 88q0 46 -17 87.5t-47 72.5t-70.5 49t-86.5 18q-47 0 -87 -18t-70 -49t-47 -72.5t-17 -87.5q0 -47 17 -88t47 -72t70 -49t87 -18zM404 -12q-76 0 -143 29t-116.5 78.5t-78.5 116.5t-29 143t29 143t78.5 116.5t116.5 78.5t143 29
t143 -29t116.5 -78.5t78.5 -116.5t29 -143t-29 -143t-78.5 -116.5t-116.5 -78.5t-143 -29zM219 804q8 54 42.5 83t75.5 29q22 0 41.5 -7t35.5 -16t29.5 -16t25.5 -7q20 0 29 12t15 35h79l-4 -26q-8 -54 -42.5 -83t-75.5 -29q-23 0 -42 7t-35 16t-29.5 16t-25.5 7
q-20 0 -29 -12t-15 -35h-79z" />
    <glyph glyph-name="Odieresis" unicode="&#xd6;" horiz-adv-x="808" 
d="M404 128q46 0 86.5 18t70.5 49t47 72t17 88q0 46 -17 87.5t-47 72.5t-70.5 49t-86.5 18q-47 0 -87 -18t-70 -49t-47 -72.5t-17 -87.5q0 -47 17 -88t47 -72t70 -49t87 -18zM404 -12q-76 0 -143 29t-116.5 78.5t-78.5 116.5t-29 143t29 143t78.5 116.5t116.5 78.5t143 29
t143 -29t116.5 -78.5t78.5 -116.5t29 -143t-29 -143t-78.5 -116.5t-116.5 -78.5t-143 -29zM287 772q-32 0 -54 22t-22 53q0 32 22 54t54 22q31 0 53 -22t22 -54q0 -31 -22 -53t-53 -22zM522 772q-32 0 -54 22t-22 53q0 32 22 54t54 22q31 0 53 -22t22 -54q0 -31 -22 -53
t-53 -22z" />
    <glyph glyph-name="multiply" unicode="&#xd7;" horiz-adv-x="506" 
d="M42 162l127 127l-127 127l84 84l127 -126l128 126l83 -84l-126 -127l126 -127l-83 -84l-128 126l-127 -126z" />
    <glyph glyph-name="Oslash" unicode="&#xd8;" horiz-adv-x="814" 
d="M407 128q46 0 86.5 18t70.5 49t47 72t17 88q0 46 -17 87.5t-47 72.5t-70.5 49t-86.5 18q-47 0 -87 -18t-70 -49t-47 -72.5t-17 -87.5q0 -47 17 -88t47 -72t70 -49t87 -18zM407 -12q-76 0 -143 29t-116.5 78.5t-78.5 116.5t-29 143t29 143t78.5 116.5t116.5 78.5t143 29
t143 -29t116.5 -78.5t78.5 -116.5t29 -143t-29 -143t-78.5 -116.5t-116.5 -78.5t-143 -29zM123 -18l-81 81l649 665l82 -81z" />
    <glyph glyph-name="Ugrave" unicode="&#xd9;" horiz-adv-x="720" 
d="M360 -12q-64 0 -117 20.5t-91.5 59t-59.5 92.5t-21 120v430h145v-432q0 -71 39.5 -110.5t104.5 -39.5t104.5 39.5t39.5 110.5v432h145v-430q0 -66 -21.5 -120t-60 -92.5t-91.5 -59t-116 -20.5zM302 770l-123 157h154l72 -157h-103z" />
    <glyph glyph-name="Uacute" unicode="&#xda;" horiz-adv-x="720" 
d="M360 -12q-64 0 -117 20.5t-91.5 59t-59.5 92.5t-21 120v430h145v-432q0 -71 39.5 -110.5t104.5 -39.5t104.5 39.5t39.5 110.5v432h145v-430q0 -66 -21.5 -120t-60 -92.5t-91.5 -59t-116 -20.5zM388 927h154l-123 -157h-103z" />
    <glyph glyph-name="Ucircumflex" unicode="&#xdb;" horiz-adv-x="720" 
d="M360 -12q-64 0 -117 20.5t-91.5 59t-59.5 92.5t-21 120v430h145v-432q0 -71 39.5 -110.5t104.5 -39.5t104.5 39.5t39.5 110.5v432h145v-430q0 -66 -21.5 -120t-60 -92.5t-91.5 -59t-116 -20.5zM186 872l174 73l174 -73v-109l-174 72l-174 -72v109z" />
    <glyph glyph-name="Udieresis" unicode="&#xdc;" horiz-adv-x="720" 
d="M360 -12q-64 0 -117 20.5t-91.5 59t-59.5 92.5t-21 120v430h145v-432q0 -71 39.5 -110.5t104.5 -39.5t104.5 39.5t39.5 110.5v432h145v-430q0 -66 -21.5 -120t-60 -92.5t-91.5 -59t-116 -20.5zM243 772q-32 0 -54 22t-22 53q0 32 22 54t54 22q31 0 53 -22t22 -54
q0 -31 -22 -53t-53 -22zM478 772q-32 0 -54 22t-22 53q0 32 22 54t54 22q31 0 53 -22t22 -54q0 -31 -22 -53t-53 -22z" />
    <glyph glyph-name="Yacute" unicode="&#xdd;" horiz-adv-x="690" 
d="M272 299l-262 411h168l166 -269l167 269h169l-263 -412v-298h-145v299zM373 927h154l-123 -157h-103z" />
    <glyph glyph-name="Thorn" unicode="&#xde;" horiz-adv-x="597" 
d="M564 355q0 -51 -18.5 -94.5t-52 -75.5t-79 -50.5t-99.5 -18.5h-91v-116h-145v710h145v-116h91q54 0 99.5 -18.5t79 -50.5t52 -75.5t18.5 -94.5zM423 355q0 44 -30 73.5t-80 29.5h-89v-206h89q50 0 80 29.5t30 73.5z" />
    <glyph glyph-name="germandbls" unicode="&#xdf;" horiz-adv-x="586" 
d="M66 530q0 52 18.5 94t50.5 71.5t73.5 45t88.5 15.5q46 0 87 -15.5t71.5 -43.5t48.5 -65.5t18 -82.5q0 -43 -19.5 -83t-55.5 -71q52 -29 78.5 -76.5t26.5 -94.5q0 -50 -18.5 -91t-51 -70.5t-76 -46t-92.5 -16.5h-38v124h31q47 0 77.5 28.5t30.5 72.5t-30.5 72.5
t-77.5 28.5h-30v124h16q42 0 67 26.5t25 64.5t-24.5 64.5t-64.5 26.5t-67 -28t-27 -73v-531h-136v530z" />
    <glyph glyph-name="agrave" unicode="&#xe0;" horiz-adv-x="617" 
d="M269 -11q-50 0 -93 21t-74.5 56.5t-49.5 83t-18 100.5t18 100.5t49.5 83t74.5 56.5t93 21q52 0 89.5 -21.5t54.5 -45.5v56h137v-500h-137v56q-17 -24 -54.5 -45.5t-89.5 -21.5zM298 114q57 0 91.5 38.5t34.5 97.5t-34.5 97.5t-91.5 38.5t-91.5 -38.5t-34.5 -97.5
t34.5 -97.5t91.5 -38.5zM105 750h159l106 -190h-102z" />
    <glyph glyph-name="aacute" unicode="&#xe1;" horiz-adv-x="617" 
d="M269 -11q-50 0 -93 21t-74.5 56.5t-49.5 83t-18 100.5t18 100.5t49.5 83t74.5 56.5t93 21q52 0 89.5 -21.5t54.5 -45.5v56h137v-500h-137v56q-17 -24 -54.5 -45.5t-89.5 -21.5zM298 114q57 0 91.5 38.5t34.5 97.5t-34.5 97.5t-91.5 38.5t-91.5 -38.5t-34.5 -97.5
t34.5 -97.5t91.5 -38.5zM380 750h159l-163 -190h-102z" />
    <glyph glyph-name="acircumflex" unicode="&#xe2;" horiz-adv-x="617" 
d="M269 -11q-50 0 -93 21t-74.5 56.5t-49.5 83t-18 100.5t18 100.5t49.5 83t74.5 56.5t93 21q52 0 89.5 -21.5t54.5 -45.5v56h137v-500h-137v56q-17 -24 -54.5 -45.5t-89.5 -21.5zM298 114q57 0 91.5 38.5t34.5 97.5t-34.5 97.5t-91.5 38.5t-91.5 -38.5t-34.5 -97.5
t34.5 -97.5t91.5 -38.5zM494 658v-110l-174 98l-174 -98v110l174 98z" />
    <glyph glyph-name="atilde" unicode="&#xe3;" horiz-adv-x="617" 
d="M269 -11q-50 0 -93 21t-74.5 56.5t-49.5 83t-18 100.5t18 100.5t49.5 83t74.5 56.5t93 21q52 0 89.5 -21.5t54.5 -45.5v56h137v-500h-137v56q-17 -24 -54.5 -45.5t-89.5 -21.5zM298 114q57 0 91.5 38.5t34.5 97.5t-34.5 97.5t-91.5 38.5t-91.5 -38.5t-34.5 -97.5
t34.5 -97.5t91.5 -38.5zM135 597q8 54 42.5 83t75.5 29q22 0 41.5 -7t35.5 -16t29.5 -16t25.5 -7q20 0 29 12t15 35h79l-4 -26q-8 -54 -42.5 -83t-75.5 -29q-23 0 -42 7t-35 16t-29.5 16t-25.5 7q-20 0 -29 -12t-15 -35h-79z" />
    <glyph glyph-name="adieresis" unicode="&#xe4;" horiz-adv-x="617" 
d="M269 -11q-50 0 -93 21t-74.5 56.5t-49.5 83t-18 100.5t18 100.5t49.5 83t74.5 56.5t93 21q52 0 89.5 -21.5t54.5 -45.5v56h137v-500h-137v56q-17 -24 -54.5 -45.5t-89.5 -21.5zM298 114q57 0 91.5 38.5t34.5 97.5t-34.5 97.5t-91.5 38.5t-91.5 -38.5t-34.5 -97.5
t34.5 -97.5t91.5 -38.5zM203 577q-32 0 -54 22t-22 53q0 32 22 54t54 22q31 0 53 -22t22 -54q0 -31 -22 -53t-53 -22zM438 577q-32 0 -54 22t-22 53q0 32 22 54t54 22q31 0 53 -22t22 -54q0 -31 -22 -53t-53 -22z" />
    <glyph glyph-name="aring" unicode="&#xe5;" horiz-adv-x="617" 
d="M269 -11q-50 0 -93 21t-74.5 56.5t-49.5 83t-18 100.5t18 100.5t49.5 83t74.5 56.5t93 21q52 0 89.5 -21.5t54.5 -45.5v56h137v-500h-137v56q-17 -24 -54.5 -45.5t-89.5 -21.5zM298 114q57 0 91.5 38.5t34.5 97.5t-34.5 97.5t-91.5 38.5t-91.5 -38.5t-34.5 -97.5
t34.5 -97.5t91.5 -38.5zM321 543q-25 0 -47 9.5t-38.5 26t-26.5 38t-10 46.5t10 46.5t26.5 38t38.5 26t47 9.5t47 -9.5t38.5 -26t26.5 -38t10 -46.5t-10 -46.5t-26.5 -38t-38.5 -26t-47 -9.5zM321 605q25 0 42 17t17 41t-17 41t-42 17t-42 -17t-17 -41t17 -41t42 -17z" />
    <glyph glyph-name="ae" unicode="&#xe6;" horiz-adv-x="908" 
d="M621 -11q-56 0 -110.5 19t-94.5 62q-59 -81 -186 -81q-46 0 -82.5 12t-61.5 32.5t-38 48t-13 58.5q0 37 15.5 63.5t44.5 45.5t72 32t97 23q48 8 68.5 15t20.5 30q0 25 -21.5 38t-54.5 13q-18 0 -35.5 -4t-30.5 -12.5t-21 -22t-8 -31.5h-136q1 37 18.5 70t48 58t72.5 39
t91 14q54 0 97.5 -17t69.5 -52q36 36 83.5 52.5t92.5 16.5q51 0 98.5 -19.5t83 -56.5t56 -92t17.5 -125h-390q2 -22 11 -42t26 -35t41 -24t56 -9q36 0 65.5 14.5t41.5 40.5h143q-11 -38 -35 -70t-57 -55t-72.5 -36t-82.5 -13zM358 241q-27 -11 -61 -21t-58 -18
q-35 -10 -50 -22.5t-15 -35.5t19.5 -36.5t56.5 -13.5q19 0 38.5 5.5t35 16.5t25 28.5t9.5 41.5v55zM609 400q-48 0 -79.5 -25t-41.5 -67h235q-6 25 -18.5 42.5t-28 28.5t-33 16t-34.5 5z" />
    <glyph glyph-name="ccedilla" unicode="&#xe7;" horiz-adv-x="580" 
d="M297 -11q-57 0 -105 20.5t-83.5 55.5t-55 83t-19.5 102t19.5 102t55 83t83.5 55.5t105 20.5q52 0 94.5 -15.5t75 -42.5t54.5 -64t32 -80h-142q-14 34 -42 56t-72 22q-27 0 -50 -9.5t-39.5 -27.5t-26 -43.5t-9.5 -56.5t9.5 -56.5t26 -43.5t39.5 -27.5t50 -9.5q44 0 72 22
t42 56h142q-10 -43 -32 -80t-54.5 -64t-75 -42.5t-94.5 -15.5zM182 -141q16 -9 37 -13t39 -4q21 0 41.5 6.5t20.5 26.5q0 14 -12 21t-32 7q-9 0 -20 -2.5t-21 -7.5l-35 19l55 91h62l-31 -51q11 3 22 5t25 2q36 0 60.5 -20.5t24.5 -58.5q0 -23 -11.5 -41t-30.5 -31t-43.5 -20
t-50.5 -7q-22 0 -48.5 2.5t-51.5 12.5v63z" />
    <glyph glyph-name="egrave" unicode="&#xe8;" horiz-adv-x="592" 
d="M296 -11q-57 0 -105.5 19.5t-83 54.5t-54 83t-19.5 105q0 56 19.5 103.5t55 82.5t83.5 54.5t105 19.5q55 0 103.5 -19.5t84.5 -56.5t56 -92t17 -125h-390q2 -22 11 -42t26 -35t41.5 -24t56.5 -9q36 0 65 14.5t41 40.5h143q-11 -38 -34.5 -70t-57 -55t-75 -36t-89.5 -13z
M293 400q-48 0 -79 -25t-41 -67h235q-6 25 -18.5 42.5t-28 28.5t-33 16t-35.5 5zM86 750h159l106 -190h-102z" />
    <glyph glyph-name="eacute" unicode="&#xe9;" horiz-adv-x="592" 
d="M296 -11q-57 0 -105.5 19.5t-83 54.5t-54 83t-19.5 105q0 56 19.5 103.5t55 82.5t83.5 54.5t105 19.5q55 0 103.5 -19.5t84.5 -56.5t56 -92t17 -125h-390q2 -22 11 -42t26 -35t41.5 -24t56.5 -9q36 0 65 14.5t41 40.5h143q-11 -38 -34.5 -70t-57 -55t-75 -36t-89.5 -13z
M293 400q-48 0 -79 -25t-41 -67h235q-6 25 -18.5 42.5t-28 28.5t-33 16t-35.5 5zM360 750h159l-163 -190h-102z" />
    <glyph glyph-name="ecircumflex" unicode="&#xea;" horiz-adv-x="592" 
d="M296 -11q-57 0 -105.5 19.5t-83 54.5t-54 83t-19.5 105q0 56 19.5 103.5t55 82.5t83.5 54.5t105 19.5q55 0 103.5 -19.5t84.5 -56.5t56 -92t17 -125h-390q2 -22 11 -42t26 -35t41.5 -24t56.5 -9q36 0 65 14.5t41 40.5h143q-11 -38 -34.5 -70t-57 -55t-75 -36t-89.5 -13z
M293 400q-48 0 -79 -25t-41 -67h235q-6 25 -18.5 42.5t-28 28.5t-33 16t-35.5 5zM475 658v-110l-174 98l-174 -98v110l174 98z" />
    <glyph glyph-name="edieresis" unicode="&#xeb;" horiz-adv-x="592" 
d="M296 -11q-57 0 -105.5 19.5t-83 54.5t-54 83t-19.5 105q0 56 19.5 103.5t55 82.5t83.5 54.5t105 19.5q55 0 103.5 -19.5t84.5 -56.5t56 -92t17 -125h-390q2 -22 11 -42t26 -35t41.5 -24t56.5 -9q36 0 65 14.5t41 40.5h143q-11 -38 -34.5 -70t-57 -55t-75 -36t-89.5 -13z
M293 400q-48 0 -79 -25t-41 -67h235q-6 25 -18.5 42.5t-28 28.5t-33 16t-35.5 5zM184 577q-32 0 -54 22t-22 53q0 32 22 54t54 22q31 0 53 -22t22 -54q0 -31 -22 -53t-53 -22zM419 577q-32 0 -54 22t-22 53q0 32 22 54t54 22q31 0 53 -22t22 -54q0 -31 -22 -53t-53 -22z" />
    <glyph glyph-name="igrave" unicode="&#xec;" horiz-adv-x="269" 
d="M66 500h137v-500h-137v500zM-79 750h159l106 -190h-102z" />
    <glyph glyph-name="iacute" unicode="&#xed;" horiz-adv-x="269" 
d="M66 500h137v-500h-137v500zM195 750h159l-163 -190h-102z" />
    <glyph glyph-name="icircumflex" unicode="&#xee;" horiz-adv-x="269" 
d="M66 500h137v-500h-137v500zM309 658v-110l-174 98l-174 -98v110l174 98z" />
    <glyph glyph-name="idieresis" unicode="&#xef;" horiz-adv-x="269" 
d="M66 500h137v-500h-137v500zM40 577q-32 0 -54 22t-22 53q0 32 22 54t54 22q31 0 53 -22t22 -54q0 -31 -22 -53t-53 -22zM229 577q-31 0 -53 22t-22 53q0 32 22 54t53 22q32 0 54 -22t22 -54q0 -31 -22 -53t-54 -22z" />
    <glyph glyph-name="eth" unicode="&#xf0;" horiz-adv-x="594" 
d="M405 563l106 -161q22 -33 35.5 -71.5t13.5 -80.5q0 -54 -20.5 -101.5t-56 -83t-83.5 -56t-103 -20.5t-103 20.5t-83.5 56t-56 83t-20.5 101.5q0 61 23.5 109t60.5 80.5t81.5 49.5t85.5 17h5l-37 57h-136v90h77l-63 97h152l63 -97h115v-90h-56zM297 117q27 0 50 10
t39.5 27.5t26 42t9.5 53.5t-9.5 53.5t-26 42t-39.5 27.5t-50 10t-50 -10t-39.5 -27.5t-26 -42t-9.5 -53.5t9.5 -53.5t26 -42t39.5 -27.5t50 -10z" />
    <glyph glyph-name="ntilde" unicode="&#xf1;" horiz-adv-x="599" 
d="M66 500h137v-57q20 30 57 49t86 19q45 0 81 -16t61 -44.5t38 -68.5t13 -89v-293h-137v270q0 54 -22.5 85t-65.5 31q-48 0 -79.5 -35t-31.5 -107v-244h-137v500zM117 597q8 54 42.5 83t75.5 29q22 0 41.5 -7t35.5 -16t29.5 -16t25.5 -7q20 0 29 12t15 35h79l-4 -26
q-8 -54 -42.5 -83t-75.5 -29q-23 0 -42 7t-35 16t-29.5 16t-25.5 7q-20 0 -29 -12t-15 -35h-79z" />
    <glyph glyph-name="ograve" unicode="&#xf2;" horiz-adv-x="592" 
d="M296 -11q-54 0 -102 20t-84 55.5t-56.5 83t-20.5 102.5t20.5 102.5t56.5 82.5t84 55.5t102 20.5t102 -20.5t84 -55.5t56.5 -82.5t20.5 -102.5t-20.5 -102.5t-56.5 -83t-84 -55.5t-102 -20zM296 117q27 0 49.5 10t39 27.5t26 42t9.5 53.5t-9.5 53.5t-26 42t-39 27.5
t-49.5 10t-50 -10t-39.5 -27.5t-26 -42t-9.5 -53.5t9.5 -53.5t26 -42t39.5 -27.5t50 -10zM81 750h159l106 -190h-102z" />
    <glyph glyph-name="oacute" unicode="&#xf3;" horiz-adv-x="592" 
d="M296 -11q-54 0 -102 20t-84 55.5t-56.5 83t-20.5 102.5t20.5 102.5t56.5 82.5t84 55.5t102 20.5t102 -20.5t84 -55.5t56.5 -82.5t20.5 -102.5t-20.5 -102.5t-56.5 -83t-84 -55.5t-102 -20zM296 117q27 0 49.5 10t39 27.5t26 42t9.5 53.5t-9.5 53.5t-26 42t-39 27.5
t-49.5 10t-50 -10t-39.5 -27.5t-26 -42t-9.5 -53.5t9.5 -53.5t26 -42t39.5 -27.5t50 -10zM356 750h159l-163 -190h-102z" />
    <glyph glyph-name="ocircumflex" unicode="&#xf4;" horiz-adv-x="592" 
d="M296 -11q-54 0 -102 20t-84 55.5t-56.5 83t-20.5 102.5t20.5 102.5t56.5 82.5t84 55.5t102 20.5t102 -20.5t84 -55.5t56.5 -82.5t20.5 -102.5t-20.5 -102.5t-56.5 -83t-84 -55.5t-102 -20zM296 117q27 0 49.5 10t39 27.5t26 42t9.5 53.5t-9.5 53.5t-26 42t-39 27.5
t-49.5 10t-50 -10t-39.5 -27.5t-26 -42t-9.5 -53.5t9.5 -53.5t26 -42t39.5 -27.5t50 -10zM470 658v-110l-174 98l-174 -98v110l174 98z" />
    <glyph glyph-name="otilde" unicode="&#xf5;" horiz-adv-x="592" 
d="M296 -11q-54 0 -102 20t-84 55.5t-56.5 83t-20.5 102.5t20.5 102.5t56.5 82.5t84 55.5t102 20.5t102 -20.5t84 -55.5t56.5 -82.5t20.5 -102.5t-20.5 -102.5t-56.5 -83t-84 -55.5t-102 -20zM296 117q27 0 49.5 10t39 27.5t26 42t9.5 53.5t-9.5 53.5t-26 42t-39 27.5
t-49.5 10t-50 -10t-39.5 -27.5t-26 -42t-9.5 -53.5t9.5 -53.5t26 -42t39.5 -27.5t50 -10zM111 597q8 54 42.5 83t75.5 29q22 0 41.5 -7t35.5 -16t29.5 -16t25.5 -7q20 0 29 12t15 35h79l-4 -26q-8 -54 -42.5 -83t-75.5 -29q-23 0 -42 7t-35 16t-29.5 16t-25.5 7
q-20 0 -29 -12t-15 -35h-79z" />
    <glyph glyph-name="odieresis" unicode="&#xf6;" horiz-adv-x="592" 
d="M296 -11q-54 0 -102 20t-84 55.5t-56.5 83t-20.5 102.5t20.5 102.5t56.5 82.5t84 55.5t102 20.5t102 -20.5t84 -55.5t56.5 -82.5t20.5 -102.5t-20.5 -102.5t-56.5 -83t-84 -55.5t-102 -20zM296 117q27 0 49.5 10t39 27.5t26 42t9.5 53.5t-9.5 53.5t-26 42t-39 27.5
t-49.5 10t-50 -10t-39.5 -27.5t-26 -42t-9.5 -53.5t9.5 -53.5t26 -42t39.5 -27.5t50 -10zM179 577q-32 0 -54 22t-22 53q0 32 22 54t54 22q31 0 53 -22t22 -54q0 -31 -22 -53t-53 -22zM414 577q-32 0 -54 22t-22 53q0 32 22 54t54 22q31 0 53 -22t22 -54q0 -31 -22 -53
t-53 -22z" />
    <glyph glyph-name="oslash" unicode="&#xf8;" horiz-adv-x="598" 
d="M300 -11q-54 0 -102 20t-84 55.5t-56.5 83t-20.5 102.5t20.5 102.5t56.5 82.5t84 55.5t102 20.5t102 -20.5t84 -55.5t56.5 -82.5t20.5 -102.5t-20.5 -102.5t-56.5 -83t-84 -55.5t-102 -20zM300 117q27 0 49.5 10t39 27.5t26 42t9.5 53.5t-9.5 53.5t-26 42t-39 27.5
t-49.5 10t-50 -10t-39.5 -27.5t-26 -42t-9.5 -53.5t9.5 -53.5t26 -42t39.5 -27.5t50 -10zM85 -11l-46 47l474 475l46 -47z" />
    <glyph glyph-name="ugrave" unicode="&#xf9;" horiz-adv-x="588" 
d="M248 -11q-45 0 -80 16t-59 45t-36.5 69.5t-12.5 90.5v290h137v-267q0 -57 20 -88t65 -31q46 0 74.5 34.5t28.5 107.5v244h137v-500h-137v57q-20 -30 -54.5 -49t-82.5 -19zM77 750h159l106 -190h-102z" />
    <glyph glyph-name="uacute" unicode="&#xfa;" horiz-adv-x="588" 
d="M248 -11q-45 0 -80 16t-59 45t-36.5 69.5t-12.5 90.5v290h137v-267q0 -57 20 -88t65 -31q46 0 74.5 34.5t28.5 107.5v244h137v-500h-137v57q-20 -30 -54.5 -49t-82.5 -19zM351 750h159l-163 -190h-102z" />
    <glyph glyph-name="ucircumflex" unicode="&#xfb;" horiz-adv-x="588" 
d="M248 -11q-45 0 -80 16t-59 45t-36.5 69.5t-12.5 90.5v290h137v-267q0 -57 20 -88t65 -31q46 0 74.5 34.5t28.5 107.5v244h137v-500h-137v57q-20 -30 -54.5 -49t-82.5 -19zM465 658v-110l-174 98l-174 -98v110l174 98z" />
    <glyph glyph-name="udieresis" unicode="&#xfc;" horiz-adv-x="588" 
d="M248 -11q-45 0 -80 16t-59 45t-36.5 69.5t-12.5 90.5v290h137v-267q0 -57 20 -88t65 -31q46 0 74.5 34.5t28.5 107.5v244h137v-500h-137v57q-20 -30 -54.5 -49t-82.5 -19zM174 577q-32 0 -54 22t-22 53q0 32 22 54t54 22q31 0 53 -22t22 -54q0 -31 -22 -53t-53 -22z
M409 577q-32 0 -54 22t-22 53q0 32 22 54t54 22q31 0 53 -22t22 -54q0 -31 -22 -53t-53 -22z" />
    <glyph glyph-name="yacute" unicode="&#xfd;" horiz-adv-x="570" 
d="M107 -209l105 237l-210 472h150l134 -324l133 324h151l-314 -709h-149zM347 750h159l-163 -190h-102z" />
    <glyph glyph-name="thorn" unicode="&#xfe;" horiz-adv-x="617" 
d="M66 -209v959h137v-306q17 24 55 45.5t90 21.5q50 0 93 -21t74.5 -56.5t49.5 -83t18 -100.5t-18 -100.5t-49.5 -83t-74.5 -56.5t-93 -21q-52 0 -90 21.5t-55 45.5v-265h-137zM318 114q57 0 91.5 38.5t34.5 97.5t-34.5 97.5t-91.5 38.5t-91.5 -38.5t-34.5 -97.5t34.5 -97.5
t91.5 -38.5z" />
    <glyph glyph-name="ydieresis" unicode="&#xff;" horiz-adv-x="570" 
d="M107 -209l105 237l-210 472h150l134 -324l133 324h151l-314 -709h-149zM171 577q-32 0 -54 22t-22 53q0 32 22 54t54 22q31 0 53 -22t22 -54q0 -31 -22 -53t-53 -22zM406 577q-32 0 -54 22t-22 53q0 32 22 54t54 22q31 0 53 -22t22 -54q0 -31 -22 -53t-53 -22z" />
    <glyph glyph-name="Abreve" unicode="&#x102;" horiz-adv-x="743" 
d="M307 710h129l307 -710h-152l-69 162h-303l-68 -162h-150zM273 289h195l-97 230zM372 750q-36 0 -67.5 12.5t-55.5 35t-37.5 55t-13.5 72.5h80q0 -48 28 -71.5t66 -23.5t66 23.5t28 71.5h80q0 -40 -13.5 -72.5t-37.5 -55t-55.5 -35t-67.5 -12.5z" />
    <glyph glyph-name="Amacron" unicode="&#x100;" horiz-adv-x="743" 
d="M307 710h129l307 -710h-152l-69 162h-303l-68 -162h-150zM273 289h195l-97 230zM201 887h342v-96h-342v96z" />
    <glyph glyph-name="Aogonek" unicode="&#x104;" horiz-adv-x="743" 
d="M307 710h129l307 -710q-41 -18 -64 -41.5t-23 -46.5q0 -14 11 -20t25 -6t28.5 5t22.5 11v-93q-13 -9 -40.5 -18.5t-62.5 -9.5q-51 0 -80.5 28t-29.5 72q0 36 16.5 66.5t44.5 52.5l-69 162h-303l-68 -162h-150zM273 289h195l-97 230z" />
    <glyph glyph-name="Cacute" unicode="&#x106;" horiz-adv-x="780" 
d="M410 -12q-81 0 -149 28.5t-117.5 78t-77.5 116.5t-28 144t28 144t77.5 116.5t117.5 78t149 28.5q60 0 116 -18.5t101.5 -52t78.5 -80t48 -103.5h-157q-11 27 -30.5 48t-44.5 35.5t-53.5 22.5t-58.5 8q-51 0 -92.5 -17.5t-71.5 -48.5t-46 -72t-16 -89t16 -89t46 -72
t71.5 -48.5t92.5 -17.5q30 0 58.5 8t53.5 22.5t44.5 35.5t30.5 48h157q-15 -57 -48 -103.5t-78.5 -80t-101.5 -52t-116 -18.5zM432 927h154l-123 -157h-103z" />
    <glyph glyph-name="Ccaron" unicode="&#x10c;" horiz-adv-x="780" 
d="M410 -12q-81 0 -149 28.5t-117.5 78t-77.5 116.5t-28 144t28 144t77.5 116.5t117.5 78t149 28.5q60 0 116 -18.5t101.5 -52t78.5 -80t48 -103.5h-157q-11 27 -30.5 48t-44.5 35.5t-53.5 22.5t-58.5 8q-51 0 -92.5 -17.5t-71.5 -48.5t-46 -72t-16 -89t16 -89t46 -72
t71.5 -48.5t92.5 -17.5q30 0 58.5 8t53.5 22.5t44.5 35.5t30.5 48h157q-15 -57 -48 -103.5t-78.5 -80t-101.5 -52t-116 -18.5zM230 835v110l174 -73l174 73v-110l-174 -72z" />
    <glyph glyph-name="Ccircumflex" unicode="&#x108;" horiz-adv-x="780" 
d="M410 -12q-81 0 -149 28.5t-117.5 78t-77.5 116.5t-28 144t28 144t77.5 116.5t117.5 78t149 28.5q60 0 116 -18.5t101.5 -52t78.5 -80t48 -103.5h-157q-11 27 -30.5 48t-44.5 35.5t-53.5 22.5t-58.5 8q-51 0 -92.5 -17.5t-71.5 -48.5t-46 -72t-16 -89t16 -89t46 -72
t71.5 -48.5t92.5 -17.5q30 0 58.5 8t53.5 22.5t44.5 35.5t30.5 48h157q-15 -57 -48 -103.5t-78.5 -80t-101.5 -52t-116 -18.5zM230 872l174 73l174 -73v-109l-174 72l-174 -72v109z" />
    <glyph glyph-name="Cdotaccent" unicode="&#x10a;" horiz-adv-x="780" 
d="M410 -12q-81 0 -149 28.5t-117.5 78t-77.5 116.5t-28 144t28 144t77.5 116.5t117.5 78t149 28.5q60 0 116 -18.5t101.5 -52t78.5 -80t48 -103.5h-157q-11 27 -30.5 48t-44.5 35.5t-53.5 22.5t-58.5 8q-51 0 -92.5 -17.5t-71.5 -48.5t-46 -72t-16 -89t16 -89t46 -72
t71.5 -48.5t92.5 -17.5q30 0 58.5 8t53.5 22.5t44.5 35.5t30.5 48h157q-15 -57 -48 -103.5t-78.5 -80t-101.5 -52t-116 -18.5zM404 772q-32 0 -54 22t-22 53q0 32 22 54t54 22q31 0 53 -22t22 -54q0 -31 -22 -53t-53 -22z" />
    <glyph glyph-name="Dcaron" unicode="&#x10e;" horiz-adv-x="716" 
d="M79 710h234q76 0 143 -27.5t116 -75.5t77.5 -113t28.5 -139t-28.5 -139t-77.5 -113t-116 -75.5t-143 -27.5h-234v710zM313 133q49 0 89.5 17.5t69 47.5t44.5 70.5t16 86.5t-16 86.5t-44.5 70.5t-69 47.5t-89.5 17.5h-89v-444h89zM164 835v110l174 -73l174 73v-110
l-174 -72z" />
    <glyph glyph-name="Dcroat" unicode="&#x110;" horiz-adv-x="731" 
d="M94 710h234q76 0 143 -27.5t116 -75.5t77.5 -113t28.5 -139t-28.5 -139t-77.5 -113t-116 -75.5t-143 -27.5h-234v710zM328 133q49 0 89.5 17.5t69 47.5t44.5 70.5t16 86.5t-16 86.5t-44.5 70.5t-69 47.5t-89.5 17.5h-89v-444h89zM22 421h345v-126h-345v126z" />
    <glyph glyph-name="Ebreve" unicode="&#x114;" horiz-adv-x="568" 
d="M79 710h442v-138h-297v-146h237v-138h-237v-150h297v-138h-442v710zM299 750q-36 0 -67.5 12.5t-55.5 35t-37.5 55t-13.5 72.5h80q0 -48 28 -71.5t66 -23.5t66 23.5t28 71.5h80q0 -40 -13.5 -72.5t-37.5 -55t-55.5 -35t-67.5 -12.5z" />
    <glyph glyph-name="Ecaron" unicode="&#x11a;" horiz-adv-x="568" 
d="M79 710h442v-138h-297v-146h237v-138h-237v-150h297v-138h-442v710zM125 835v110l174 -73l174 73v-110l-174 -72z" />
    <glyph glyph-name="Emacron" unicode="&#x112;" horiz-adv-x="568" 
d="M79 710h442v-138h-297v-146h237v-138h-237v-150h297v-138h-442v710zM128 887h342v-96h-342v96z" />
    <glyph glyph-name="Eogonek" unicode="&#x118;" horiz-adv-x="568" 
d="M79 710h442v-138h-297v-146h237v-138h-237v-150h297v-138h-442v710zM419 -219q-51 0 -81 28t-30 72q0 36 19.5 66.5t48.5 52.5h145q-40 -18 -63 -41.5t-23 -46.5q0 -14 11 -20t25 -6t28 5t22 11v-93q-12 -9 -39.5 -18.5t-62.5 -9.5z" />
    <glyph glyph-name="Edotaccent" unicode="&#x116;" horiz-adv-x="568" 
d="M79 710h442v-138h-297v-146h237v-138h-237v-150h297v-138h-442v710zM299 772q-32 0 -54 22t-22 53q0 32 22 54t54 22q31 0 53 -22t22 -54q0 -31 -22 -53t-53 -22z" />
    <glyph glyph-name="Gbreve" unicode="&#x11e;" horiz-adv-x="805" 
d="M412 -12q-81 0 -150 28.5t-118.5 78t-77.5 116.5t-28 144t28 144t77.5 116.5t117.5 78t149 28.5q56 0 108.5 -16t97 -45t78 -70t51.5 -91h-166q-26 39 -72 60.5t-97 21.5t-92.5 -17.5t-71.5 -48.5t-46 -72t-16 -89t16 -89t46 -72t72 -48.5t94 -17.5q87 0 137.5 43.5
t62.5 117.5h-217v136h367q12 -110 -11.5 -191.5t-72.5 -136.5t-118 -82t-148 -27zM410 750q-36 0 -67.5 12.5t-55.5 35t-37.5 55t-13.5 72.5h80q0 -48 28 -71.5t66 -23.5t66 23.5t28 71.5h80q0 -40 -13.5 -72.5t-37.5 -55t-55.5 -35t-67.5 -12.5z" />
    <glyph glyph-name="Gcircumflex" unicode="&#x11c;" horiz-adv-x="805" 
d="M412 -12q-81 0 -150 28.5t-118.5 78t-77.5 116.5t-28 144t28 144t77.5 116.5t117.5 78t149 28.5q56 0 108.5 -16t97 -45t78 -70t51.5 -91h-166q-26 39 -72 60.5t-97 21.5t-92.5 -17.5t-71.5 -48.5t-46 -72t-16 -89t16 -89t46 -72t72 -48.5t94 -17.5q87 0 137.5 43.5
t62.5 117.5h-217v136h367q12 -110 -11.5 -191.5t-72.5 -136.5t-118 -82t-148 -27zM236 872l174 73l174 -73v-109l-174 72l-174 -72v109z" />
    <glyph glyph-name="uni0122" unicode="&#x122;" horiz-adv-x="805" 
d="M412 -12q-81 0 -150 28.5t-118.5 78t-77.5 116.5t-28 144t28 144t77.5 116.5t117.5 78t149 28.5q56 0 108.5 -16t97 -45t78 -70t51.5 -91h-166q-26 39 -72 60.5t-97 21.5t-92.5 -17.5t-71.5 -48.5t-46 -72t-16 -89t16 -89t46 -72t72 -48.5t94 -17.5q87 0 137.5 43.5
t62.5 117.5h-217v136h367q12 -110 -11.5 -191.5t-72.5 -136.5t-118 -82t-148 -27zM380 -212q-18 8 -31.5 26t-13.5 43q0 31 21.5 53t53.5 22q31 0 53 -22t22 -53q0 -27 -15 -48l-72 -115h-60z" />
    <glyph glyph-name="Gdotaccent" unicode="&#x120;" horiz-adv-x="805" 
d="M412 -12q-81 0 -150 28.5t-118.5 78t-77.5 116.5t-28 144t28 144t77.5 116.5t117.5 78t149 28.5q56 0 108.5 -16t97 -45t78 -70t51.5 -91h-166q-26 39 -72 60.5t-97 21.5t-92.5 -17.5t-71.5 -48.5t-46 -72t-16 -89t16 -89t46 -72t72 -48.5t94 -17.5q87 0 137.5 43.5
t62.5 117.5h-217v136h367q12 -110 -11.5 -191.5t-72.5 -136.5t-118 -82t-148 -27zM410 772q-32 0 -54 22t-22 53q0 32 22 54t54 22q31 0 53 -22t22 -54q0 -31 -22 -53t-53 -22z" />
    <glyph glyph-name="Hbar" unicode="&#x126;" horiz-adv-x="787" 
d="M95 710h145v-283h308v283h145v-710h-145v289h-308v-289h-145v710zM23 619h742v-100h-742v100z" />
    <glyph glyph-name="Hcircumflex" unicode="&#x124;" horiz-adv-x="756" 
d="M79 710h145v-283h308v283h145v-710h-145v289h-308v-289h-145v710zM204 872l174 73l174 -73v-109l-174 72l-174 -72v109z" />
    <glyph glyph-name="Ibreve" unicode="&#x12c;" horiz-adv-x="303" 
d="M79 710h145v-710h-145v710zM152 750q-36 0 -67.5 12.5t-55.5 35t-37.5 55t-13.5 72.5h80q0 -48 28 -71.5t66 -23.5t66 23.5t28 71.5h80q0 -40 -13.5 -72.5t-37.5 -55t-55.5 -35t-67.5 -12.5z" />
    <glyph glyph-name="Idotaccent" unicode="&#x130;" horiz-adv-x="303" 
d="M79 710h145v-710h-145v710zM152 772q-32 0 -54 22t-22 53q0 32 22 54t54 22q31 0 53 -22t22 -54q0 -31 -22 -53t-53 -22z" />
    <glyph glyph-name="Imacron" unicode="&#x12a;" horiz-adv-x="303" 
d="M79 710h145v-710h-145v710zM-19 887h342v-96h-342v96z" />
    <glyph glyph-name="Iogonek" unicode="&#x12e;" horiz-adv-x="303" 
d="M79 710h145v-710h-145v710zM122 -219q-51 0 -81 28t-30 72q0 36 19.5 66.5t48.5 52.5h145q-40 -18 -63 -41.5t-23 -46.5q0 -14 11 -20t25 -6t28 5t22 11v-93q-12 -9 -39.5 -18.5t-62.5 -9.5z" />
    <glyph glyph-name="Itilde" unicode="&#x128;" horiz-adv-x="303" 
d="M79 710h145v-710h-145v710zM-33 804q8 54 42.5 83t75.5 29q22 0 41.5 -7t35.5 -16t29.5 -16t25.5 -7q20 0 29 12t15 35h79l-4 -26q-8 -54 -42.5 -83t-75.5 -29q-23 0 -42 7t-35 16t-29.5 16t-25.5 7q-20 0 -29 -12t-15 -35h-79z" />
    <glyph glyph-name="uni1ECA" unicode="&#x1eca;" horiz-adv-x="303" 
d="M79 710h145v-710h-145v710zM152 -219q-32 0 -54 22t-22 53q0 32 22 54t54 22q31 0 53 -22t22 -54q0 -31 -22 -53t-53 -22z" />
    <glyph glyph-name="Jcircumflex" unicode="&#x134;" horiz-adv-x="547" 
d="M246 -12q-44 0 -85 13t-72.5 39.5t-50 67t-18.5 96.5h143q0 -41 24.5 -61t58.5 -20q33 0 58 19.5t25 61.5v506h144v-516q0 -54 -18.5 -93t-50 -64t-72.5 -37t-86 -12zM226 872l174 73l174 -73v-109l-174 72l-174 -72v109z" />
    <glyph glyph-name="uni0136" unicode="&#x136;" horiz-adv-x="694" 
d="M223 322v-322h-144v710h144v-301l256 301h179l-292 -341l353 -369h-188zM346 -212q-18 8 -31.5 26t-13.5 43q0 31 21.5 53t53.5 22q31 0 53 -22t22 -53q0 -27 -15 -48l-72 -115h-60z" />
    <glyph glyph-name="Lacute" unicode="&#x139;" horiz-adv-x="551" 
d="M79 710h145v-572h304v-138h-449v710zM182 927h154l-123 -157h-103z" />
    <glyph glyph-name="Lcaron" unicode="&#x13d;" horiz-adv-x="553" 
d="M79 710h145v-572h304v-138h-449v710zM315 750h137l-65 -161h-93z" />
    <glyph glyph-name="uni013B" unicode="&#x13b;" horiz-adv-x="551" 
d="M79 710h145v-572h304v-138h-449v710zM273 -212q-18 8 -31.5 26t-13.5 43q0 31 21.5 53t53.5 22q31 0 53 -22t22 -53q0 -27 -15 -48l-72 -115h-60z" />
    <glyph glyph-name="Ldot" unicode="&#x13f;" horiz-adv-x="558" 
d="M79 710h145v-572h304v-138h-449v710zM423 349q-32 0 -54 22t-22 53q0 32 22 54t54 22q31 0 53 -22t22 -54q0 -31 -22 -53t-53 -22z" />
    <glyph glyph-name="Lslash" unicode="&#x141;" horiz-adv-x="580" 
d="M107 710h145v-572h304v-138h-449v710zM36 213v115l352 207v-116z" />
    <glyph glyph-name="Nacute" unicode="&#x143;" horiz-adv-x="792" 
d="M588 0l-364 463v-463h-145v710h125l364 -463v463h145v-710h-125zM423 927h154l-123 -157h-103z" />
    <glyph glyph-name="Ncaron" unicode="&#x147;" horiz-adv-x="792" 
d="M588 0l-364 463v-463h-145v710h125l364 -463v463h145v-710h-125zM221 835v110l174 -73l174 73v-110l-174 -72z" />
    <glyph glyph-name="uni0145" unicode="&#x145;" horiz-adv-x="792" 
d="M588 0l-364 463v-463h-145v710h125l364 -463v463h145v-710h-125zM365 -212q-18 8 -31.5 26t-13.5 43q0 31 21.5 53t53.5 22q31 0 53 -22t22 -53q0 -27 -15 -48l-72 -115h-60z" />
    <glyph glyph-name="OE" unicode="&#x152;" horiz-adv-x="1114" 
d="M404 128q46 0 86.5 18t70.5 49t47 72t17 88q0 46 -17 87.5t-47 72.5t-70.5 49t-86.5 18q-47 0 -87 -18t-70 -49t-47 -72.5t-17 -87.5q0 -47 17 -88t47 -72t70 -49t87 -18zM625 69q-40 -42 -99 -61.5t-122 -19.5q-76 0 -143 29t-116.5 78.5t-78.5 116.5t-29 143t29 143
t78.5 116.5t116.5 78.5t143 29q63 0 122 -19.5t99 -61.5v69h442v-138h-297v-146h237v-138h-237v-150h297v-138h-442v69z" />
    <glyph glyph-name="Obreve" unicode="&#x14e;" horiz-adv-x="808" 
d="M404 128q46 0 86.5 18t70.5 49t47 72t17 88q0 46 -17 87.5t-47 72.5t-70.5 49t-86.5 18q-47 0 -87 -18t-70 -49t-47 -72.5t-17 -87.5q0 -47 17 -88t47 -72t70 -49t87 -18zM404 -12q-76 0 -143 29t-116.5 78.5t-78.5 116.5t-29 143t29 143t78.5 116.5t116.5 78.5t143 29
t143 -29t116.5 -78.5t78.5 -116.5t29 -143t-29 -143t-78.5 -116.5t-116.5 -78.5t-143 -29zM404 750q-36 0 -67.5 12.5t-55.5 35t-37.5 55t-13.5 72.5h80q0 -48 28 -71.5t66 -23.5t66 23.5t28 71.5h80q0 -40 -13.5 -72.5t-37.5 -55t-55.5 -35t-67.5 -12.5z" />
    <glyph glyph-name="Ohungarumlaut" unicode="&#x150;" horiz-adv-x="808" 
d="M404 128q46 0 86.5 18t70.5 49t47 72t17 88q0 46 -17 87.5t-47 72.5t-70.5 49t-86.5 18q-47 0 -87 -18t-70 -49t-47 -72.5t-17 -87.5q0 -47 17 -88t47 -72t70 -49t87 -18zM404 -12q-76 0 -143 29t-116.5 78.5t-78.5 116.5t-29 143t29 143t78.5 116.5t116.5 78.5t143 29
t143 -29t116.5 -78.5t78.5 -116.5t29 -143t-29 -143t-78.5 -116.5t-116.5 -78.5t-143 -29zM522 927h144l-123 -157h-87zM340 927h144l-123 -157h-87z" />
    <glyph glyph-name="Omacron" unicode="&#x14c;" horiz-adv-x="808" 
d="M404 128q46 0 86.5 18t70.5 49t47 72t17 88q0 46 -17 87.5t-47 72.5t-70.5 49t-86.5 18q-47 0 -87 -18t-70 -49t-47 -72.5t-17 -87.5q0 -47 17 -88t47 -72t70 -49t87 -18zM404 -12q-76 0 -143 29t-116.5 78.5t-78.5 116.5t-29 143t29 143t78.5 116.5t116.5 78.5t143 29
t143 -29t116.5 -78.5t78.5 -116.5t29 -143t-29 -143t-78.5 -116.5t-116.5 -78.5t-143 -29zM233 887h342v-96h-342v96z" />
    <glyph glyph-name="uni1ECC" unicode="&#x1ecc;" horiz-adv-x="808" 
d="M404 128q46 0 86.5 18t70.5 49t47 72t17 88q0 46 -17 87.5t-47 72.5t-70.5 49t-86.5 18q-47 0 -87 -18t-70 -49t-47 -72.5t-17 -87.5q0 -47 17 -88t47 -72t70 -49t87 -18zM404 -12q-76 0 -143 29t-116.5 78.5t-78.5 116.5t-29 143t29 143t78.5 116.5t116.5 78.5t143 29
t143 -29t116.5 -78.5t78.5 -116.5t29 -143t-29 -143t-78.5 -116.5t-116.5 -78.5t-143 -29zM404 -219q-32 0 -54 22t-22 53q0 32 22 54t54 22q31 0 53 -22t22 -54q0 -31 -22 -53t-53 -22z" />
    <glyph glyph-name="Racute" unicode="&#x154;" horiz-adv-x="656" 
d="M79 710h272q50 0 90 -16t68.5 -44.5t44 -67t15.5 -82.5q0 -72 -37.5 -117.5t-108.5 -67.5l255 -315h-175l-244 299h-35v-299h-145v710zM334 423q41 0 66 20.5t25 56.5q0 37 -25 57t-66 20h-110v-154h110zM329 927h154l-123 -157h-103z" />
    <glyph glyph-name="Rcaron" unicode="&#x158;" horiz-adv-x="656" 
d="M79 710h272q50 0 90 -16t68.5 -44.5t44 -67t15.5 -82.5q0 -72 -37.5 -117.5t-108.5 -67.5l255 -315h-175l-244 299h-35v-299h-145v710zM334 423q41 0 66 20.5t25 56.5q0 37 -25 57t-66 20h-110v-154h110zM127 835v110l174 -73l174 73v-110l-174 -72z" />
    <glyph glyph-name="uni0156" unicode="&#x156;" horiz-adv-x="656" 
d="M79 710h272q50 0 90 -16t68.5 -44.5t44 -67t15.5 -82.5q0 -72 -37.5 -117.5t-108.5 -67.5l255 -315h-175l-244 299h-35v-299h-145v710zM334 423q41 0 66 20.5t25 56.5q0 37 -25 57t-66 20h-110v-154h110zM333 -212q-18 8 -31.5 26t-13.5 43q0 31 21.5 53t53.5 22
q31 0 53 -22t22 -53q0 -27 -15 -48l-72 -115h-60z" />
    <glyph glyph-name="Sacute" unicode="&#x15a;" horiz-adv-x="593" 
d="M307 -12q-64 0 -113.5 20t-84.5 52.5t-54 74t-21 85.5h145q8 -48 44 -73t84 -25q44 0 72.5 19t28.5 53q0 29 -22 50.5t-73 35.5l-75 22q-85 24 -135 76.5t-51 133.5q0 49 17 88t48.5 66t75.5 41.5t97 14.5q57 0 102.5 -19t77.5 -49.5t49.5 -69t19.5 -78.5h-144
q-12 45 -42.5 63.5t-62.5 18.5q-38 0 -64.5 -17t-27.5 -49q-1 -33 22 -52.5t67 -32.5l83 -23q87 -24 135.5 -78t48.5 -137q0 -45 -17.5 -84t-50 -67t-78 -44t-101.5 -16zM322 927h154l-123 -157h-103z" />
    <glyph glyph-name="Scaron" unicode="&#x160;" horiz-adv-x="593" 
d="M307 -12q-64 0 -113.5 20t-84.5 52.5t-54 74t-21 85.5h145q8 -48 44 -73t84 -25q44 0 72.5 19t28.5 53q0 29 -22 50.5t-73 35.5l-75 22q-85 24 -135 76.5t-51 133.5q0 49 17 88t48.5 66t75.5 41.5t97 14.5q57 0 102.5 -19t77.5 -49.5t49.5 -69t19.5 -78.5h-144
q-12 45 -42.5 63.5t-62.5 18.5q-38 0 -64.5 -17t-27.5 -49q-1 -33 22 -52.5t67 -32.5l83 -23q87 -24 135.5 -78t48.5 -137q0 -45 -17.5 -84t-50 -67t-78 -44t-101.5 -16zM120 835v110l174 -73l174 73v-110l-174 -72z" />
    <glyph glyph-name="Scedilla" unicode="&#x15e;" horiz-adv-x="593" 
d="M307 -12q-64 0 -113.5 20t-84.5 52.5t-54 74t-21 85.5h145q8 -48 44 -73t84 -25q44 0 72.5 19t28.5 53q0 29 -22 50.5t-73 35.5l-75 22q-85 24 -135 76.5t-51 133.5q0 49 17 88t48.5 66t75.5 41.5t97 14.5q57 0 102.5 -19t77.5 -49.5t49.5 -69t19.5 -78.5h-144
q-12 45 -42.5 63.5t-62.5 18.5q-38 0 -64.5 -17t-27.5 -49q-1 -33 22 -52.5t67 -32.5l83 -23q87 -24 135.5 -78t48.5 -137q0 -45 -17.5 -84t-50 -67t-78 -44t-101.5 -16zM187 -141q16 -9 37 -13t39 -4q21 0 41.5 6.5t20.5 26.5q0 14 -12 21t-32 7q-9 0 -20 -2.5t-21 -7.5
l-35 19l55 91h62l-31 -51q12 3 22.5 5t24.5 2q36 0 60.5 -20.5t24.5 -58.5q0 -23 -11.5 -41t-30.5 -31t-43.5 -20t-50.5 -7q-21 0 -48 2.5t-52 12.5v63z" />
    <glyph glyph-name="Scircumflex" unicode="&#x15c;" horiz-adv-x="593" 
d="M307 -12q-64 0 -113.5 20t-84.5 52.5t-54 74t-21 85.5h145q8 -48 44 -73t84 -25q44 0 72.5 19t28.5 53q0 29 -22 50.5t-73 35.5l-75 22q-85 24 -135 76.5t-51 133.5q0 49 17 88t48.5 66t75.5 41.5t97 14.5q57 0 102.5 -19t77.5 -49.5t49.5 -69t19.5 -78.5h-144
q-12 45 -42.5 63.5t-62.5 18.5q-38 0 -64.5 -17t-27.5 -49q-1 -33 22 -52.5t67 -32.5l83 -23q87 -24 135.5 -78t48.5 -137q0 -45 -17.5 -84t-50 -67t-78 -44t-101.5 -16zM120 872l174 73l174 -73v-109l-174 72l-174 -72v109z" />
    <glyph glyph-name="uni0218" unicode="&#x218;" horiz-adv-x="593" 
d="M307 -12q-64 0 -113.5 20t-84.5 52.5t-54 74t-21 85.5h145q8 -48 44 -73t84 -25q44 0 72.5 19t28.5 53q0 29 -22 50.5t-73 35.5l-75 22q-85 24 -135 76.5t-51 133.5q0 49 17 88t48.5 66t75.5 41.5t97 14.5q57 0 102.5 -19t77.5 -49.5t49.5 -69t19.5 -78.5h-144
q-12 45 -42.5 63.5t-62.5 18.5q-38 0 -64.5 -17t-27.5 -49q-1 -33 22 -52.5t67 -32.5l83 -23q87 -24 135.5 -78t48.5 -137q0 -45 -17.5 -84t-50 -67t-78 -44t-101.5 -16zM275 -212q-18 8 -31.5 26t-13.5 43q0 31 21.5 53t53.5 22q31 0 53 -22t22 -53q0 -27 -15 -48l-72 -115
h-60z" />
    <glyph glyph-name="Tcaron" unicode="&#x164;" horiz-adv-x="568" 
d="M210 572h-189v138h526v-138h-191v-572h-146v572zM110 835v110l174 -73l174 73v-110l-174 -72z" />
    <glyph glyph-name="uni0162" unicode="&#x162;" horiz-adv-x="568" 
d="M210 572h-189v138h526v-138h-191v-572h-146v572zM254 -212q-18 8 -31.5 26t-13.5 43q0 31 21.5 53t53.5 22q31 0 53 -22t22 -53q0 -27 -15 -48l-72 -115h-60z" />
    <glyph glyph-name="uni021A" unicode="&#x21a;" horiz-adv-x="568" 
d="M210 572h-189v138h526v-138h-191v-572h-146v572zM254 -212q-18 8 -31.5 26t-13.5 43q0 31 21.5 53t53.5 22q31 0 53 -22t22 -53q0 -27 -15 -48l-72 -115h-60z" />
    <glyph glyph-name="Ubreve" unicode="&#x16c;" horiz-adv-x="720" 
d="M360 -12q-64 0 -117 20.5t-91.5 59t-59.5 92.5t-21 120v430h145v-432q0 -71 39.5 -110.5t104.5 -39.5t104.5 39.5t39.5 110.5v432h145v-430q0 -66 -21.5 -120t-60 -92.5t-91.5 -59t-116 -20.5zM360 750q-36 0 -67.5 12.5t-55.5 35t-37.5 55t-13.5 72.5h80q0 -48 28 -71.5
t66 -23.5t66 23.5t28 71.5h80q0 -40 -13.5 -72.5t-37.5 -55t-55.5 -35t-67.5 -12.5z" />
    <glyph glyph-name="Uhungarumlaut" unicode="&#x170;" horiz-adv-x="720" 
d="M360 -12q-64 0 -117 20.5t-91.5 59t-59.5 92.5t-21 120v430h145v-432q0 -71 39.5 -110.5t104.5 -39.5t104.5 39.5t39.5 110.5v432h145v-430q0 -66 -21.5 -120t-60 -92.5t-91.5 -59t-116 -20.5zM477 927h144l-123 -157h-87zM295 927h144l-123 -157h-87z" />
    <glyph glyph-name="Umacron" unicode="&#x16a;" horiz-adv-x="720" 
d="M360 -12q-64 0 -117 20.5t-91.5 59t-59.5 92.5t-21 120v430h145v-432q0 -71 39.5 -110.5t104.5 -39.5t104.5 39.5t39.5 110.5v432h145v-430q0 -66 -21.5 -120t-60 -92.5t-91.5 -59t-116 -20.5zM189 887h342v-96h-342v96z" />
    <glyph glyph-name="Uogonek" unicode="&#x172;" horiz-adv-x="720" 
d="M413 -219q-51 0 -80.5 28t-29.5 72q0 24 10 51t39 56q-63 1 -115 23t-89 60t-57 91t-20 118v430h145v-432q0 -71 39.5 -110.5t104.5 -39.5t104.5 39.5t39.5 110.5v432h145v-430q0 -77 -26.5 -134t-74.5 -97q-30 -26 -52.5 -45t-37.5 -34t-22 -27.5t-7 -26.5
q0 -15 11 -22.5t25 -7.5t28 5t22 11v-93q-12 -9 -39 -18.5t-63 -9.5z" />
    <glyph glyph-name="Uring" unicode="&#x16e;" horiz-adv-x="720" 
d="M360 -12q-64 0 -117 20.5t-91.5 59t-59.5 92.5t-21 120v430h145v-432q0 -71 39.5 -110.5t104.5 -39.5t104.5 39.5t39.5 110.5v432h145v-430q0 -66 -21.5 -120t-60 -92.5t-91.5 -59t-116 -20.5zM361 753q-25 0 -47 9.5t-38.5 26t-26.5 38t-10 46.5t10 46.5t26.5 38
t38.5 26t47 9.5t47 -9.5t38.5 -26t26.5 -38t10 -46.5t-10 -46.5t-26.5 -38t-38.5 -26t-47 -9.5zM361 815q25 0 42 17t17 41t-17 41t-42 17t-42 -17t-17 -41t17 -41t42 -17z" />
    <glyph glyph-name="Utilde" unicode="&#x168;" horiz-adv-x="720" 
d="M360 -12q-64 0 -117 20.5t-91.5 59t-59.5 92.5t-21 120v430h145v-432q0 -71 39.5 -110.5t104.5 -39.5t104.5 39.5t39.5 110.5v432h145v-430q0 -66 -21.5 -120t-60 -92.5t-91.5 -59t-116 -20.5zM175 804q8 54 42.5 83t75.5 29q22 0 41.5 -7t35.5 -16t29.5 -16t25.5 -7
q20 0 29 12t15 35h79l-4 -26q-8 -54 -42.5 -83t-75.5 -29q-23 0 -42 7t-35 16t-29.5 16t-25.5 7q-20 0 -29 -12t-15 -35h-79z" />
    <glyph glyph-name="uni1EE4" unicode="&#x1ee4;" horiz-adv-x="720" 
d="M360 -12q-64 0 -117 20.5t-91.5 59t-59.5 92.5t-21 120v430h145v-432q0 -71 39.5 -110.5t104.5 -39.5t104.5 39.5t39.5 110.5v432h145v-430q0 -66 -21.5 -120t-60 -92.5t-91.5 -59t-116 -20.5zM360 -219q-32 0 -54 22t-22 53q0 32 22 54t54 22q31 0 53 -22t22 -54
q0 -31 -22 -53t-53 -22z" />
    <glyph glyph-name="Wacute" unicode="&#x1e82;" horiz-adv-x="961" 
d="M481 377l-156 -377h-136l-171 710h154l108 -472l201 484l201 -484l108 472h154l-171 -710h-136zM509 927h154l-123 -157h-103z" />
    <glyph glyph-name="Wcircumflex" unicode="&#x174;" horiz-adv-x="961" 
d="M481 377l-156 -377h-136l-171 710h154l108 -472l201 484l201 -484l108 472h154l-171 -710h-136zM307 872l174 73l174 -73v-109l-174 72l-174 -72v109z" />
    <glyph glyph-name="Wdieresis" unicode="&#x1e84;" horiz-adv-x="961" 
d="M481 377l-156 -377h-136l-171 710h154l108 -472l201 484l201 -484l108 472h154l-171 -710h-136zM364 772q-32 0 -54 22t-22 53q0 32 22 54t54 22q31 0 53 -22t22 -54q0 -31 -22 -53t-53 -22zM599 772q-32 0 -54 22t-22 53q0 32 22 54t54 22q31 0 53 -22t22 -54
q0 -31 -22 -53t-53 -22z" />
    <glyph glyph-name="Wgrave" unicode="&#x1e80;" horiz-adv-x="961" 
d="M481 377l-156 -377h-136l-171 710h154l108 -472l201 484l201 -484l108 472h154l-171 -710h-136zM423 770l-123 157h154l72 -157h-103z" />
    <glyph glyph-name="Ycircumflex" unicode="&#x176;" horiz-adv-x="690" 
d="M272 299l-262 411h168l166 -269l167 269h169l-263 -412v-298h-145v299zM171 872l174 73l174 -73v-109l-174 72l-174 -72v109z" />
    <glyph glyph-name="Ydieresis" unicode="&#x178;" horiz-adv-x="690" 
d="M272 299l-262 411h168l166 -269l167 269h169l-263 -412v-298h-145v299zM228 772q-32 0 -54 22t-22 53q0 32 22 54t54 22q31 0 53 -22t22 -54q0 -31 -22 -53t-53 -22zM463 772q-32 0 -54 22t-22 53q0 32 22 54t54 22q31 0 53 -22t22 -54q0 -31 -22 -53t-53 -22z" />
    <glyph glyph-name="Ygrave" unicode="&#x1ef2;" horiz-adv-x="690" 
d="M272 299l-262 411h168l166 -269l167 269h169l-263 -412v-298h-145v299zM287 770l-123 157h154l72 -157h-103z" />
    <glyph glyph-name="uni0232" unicode="&#x232;" horiz-adv-x="690" 
d="M272 299l-262 411h168l166 -269l167 269h169l-263 -412v-298h-145v299zM174 887h342v-96h-342v96z" />
    <glyph glyph-name="Zacute" unicode="&#x179;" horiz-adv-x="618" 
d="M38 99l339 473h-333v138h529v-99l-341 -473h348v-138h-542v99zM338 927h154l-123 -157h-103z" />
    <glyph glyph-name="Zcaron" unicode="&#x17d;" horiz-adv-x="618" 
d="M38 99l339 473h-333v138h529v-99l-341 -473h348v-138h-542v99zM136 835v110l174 -73l174 73v-110l-174 -72z" />
    <glyph glyph-name="Zdotaccent" unicode="&#x17b;" horiz-adv-x="618" 
d="M38 99l339 473h-333v138h529v-99l-341 -473h348v-138h-542v99zM310 772q-32 0 -54 22t-22 53q0 32 22 54t54 22q31 0 53 -22t22 -54q0 -31 -22 -53t-53 -22z" />
    <glyph glyph-name="uni1E9E" unicode="&#x1e9e;" horiz-adv-x="648" 
d="M79 710h484v-98l-99 -155q69 -24 106.5 -77.5t37.5 -135.5q0 -58 -19 -103.5t-53.5 -76.5t-82 -47.5t-104.5 -16.5h-46v138h43q48 0 82 26.5t34 79.5q0 52 -34 78.5t-82 26.5h-43v100l82 129h-161v-578h-145v710z" />
    <glyph glyph-name="abreve" unicode="&#x103;" horiz-adv-x="617" 
d="M269 -11q-50 0 -93 21t-74.5 56.5t-49.5 83t-18 100.5t18 100.5t49.5 83t74.5 56.5t93 21q52 0 89.5 -21.5t54.5 -45.5v56h137v-500h-137v56q-17 -24 -54.5 -45.5t-89.5 -21.5zM298 114q57 0 91.5 38.5t34.5 97.5t-34.5 97.5t-91.5 38.5t-91.5 -38.5t-34.5 -97.5
t34.5 -97.5t91.5 -38.5zM320 558q-36 0 -67.5 12.5t-55.5 35t-37.5 54.5t-13.5 72v18h80v-18q0 -47 28 -71t66 -24t66 24t28 71v18h80v-18q0 -40 -13.5 -72t-37.5 -54.5t-55.5 -35t-67.5 -12.5z" />
    <glyph glyph-name="amacron" unicode="&#x101;" horiz-adv-x="617" 
d="M269 -11q-50 0 -93 21t-74.5 56.5t-49.5 83t-18 100.5t18 100.5t49.5 83t74.5 56.5t93 21q52 0 89.5 -21.5t54.5 -45.5v56h137v-500h-137v56q-17 -24 -54.5 -45.5t-89.5 -21.5zM298 114q57 0 91.5 38.5t34.5 97.5t-34.5 97.5t-91.5 38.5t-91.5 -38.5t-34.5 -97.5
t34.5 -97.5t91.5 -38.5zM149 710h342v-97h-342v97z" />
    <glyph glyph-name="aogonek" unicode="&#x105;" horiz-adv-x="617" 
d="M269 -11q-50 0 -93 21t-74.5 56.5t-49.5 83t-18 100.5t18 100.5t49.5 83t74.5 56.5t93 21q52 0 89.5 -21.5t54.5 -45.5v56h137v-500h-137v56q-17 -24 -54.5 -45.5t-89.5 -21.5zM298 114q57 0 91.5 38.5t34.5 97.5t-34.5 97.5t-91.5 38.5t-91.5 -38.5t-34.5 -97.5
t34.5 -97.5t91.5 -38.5zM452 -219q-51 0 -79 28t-28 72q0 36 19.5 66.5t48.5 52.5h137q-40 -18 -63 -42t-23 -50q0 -17 11 -23.5t25 -6.5t28 5t22 11v-85q-12 -9 -39 -18.5t-59 -9.5z" />
    <glyph glyph-name="cacute" unicode="&#x107;" horiz-adv-x="580" 
d="M297 -11q-57 0 -105 20.5t-83.5 55.5t-55 83t-19.5 102t19.5 102t55 83t83.5 55.5t105 20.5q52 0 94.5 -15.5t75 -42.5t54.5 -64t32 -80h-142q-14 34 -42 56t-72 22q-27 0 -50 -9.5t-39.5 -27.5t-26 -43.5t-9.5 -56.5t9.5 -56.5t26 -43.5t39.5 -27.5t50 -9.5q44 0 72 22
t42 56h142q-10 -43 -32 -80t-54.5 -64t-75 -42.5t-94.5 -15.5zM359 750h159l-163 -190h-102z" />
    <glyph glyph-name="ccaron" unicode="&#x10d;" horiz-adv-x="580" 
d="M297 -11q-57 0 -105 20.5t-83.5 55.5t-55 83t-19.5 102t19.5 102t55 83t83.5 55.5t105 20.5q52 0 94.5 -15.5t75 -42.5t54.5 -64t32 -80h-142q-14 34 -42 56t-72 22q-27 0 -50 -9.5t-39.5 -27.5t-26 -43.5t-9.5 -56.5t9.5 -56.5t26 -43.5t39.5 -27.5t50 -9.5q44 0 72 22
t42 56h142q-10 -43 -32 -80t-54.5 -64t-75 -42.5t-94.5 -15.5zM125 646v110l174 -98l174 98v-110l-174 -98z" />
    <glyph glyph-name="ccircumflex" unicode="&#x109;" horiz-adv-x="580" 
d="M297 -11q-57 0 -105 20.5t-83.5 55.5t-55 83t-19.5 102t19.5 102t55 83t83.5 55.5t105 20.5q52 0 94.5 -15.5t75 -42.5t54.5 -64t32 -80h-142q-14 34 -42 56t-72 22q-27 0 -50 -9.5t-39.5 -27.5t-26 -43.5t-9.5 -56.5t9.5 -56.5t26 -43.5t39.5 -27.5t50 -9.5q44 0 72 22
t42 56h142q-10 -43 -32 -80t-54.5 -64t-75 -42.5t-94.5 -15.5zM473 658v-110l-174 98l-174 -98v110l174 98z" />
    <glyph glyph-name="cdotaccent" unicode="&#x10b;" horiz-adv-x="580" 
d="M297 -11q-57 0 -105 20.5t-83.5 55.5t-55 83t-19.5 102t19.5 102t55 83t83.5 55.5t105 20.5q52 0 94.5 -15.5t75 -42.5t54.5 -64t32 -80h-142q-14 34 -42 56t-72 22q-27 0 -50 -9.5t-39.5 -27.5t-26 -43.5t-9.5 -56.5t9.5 -56.5t26 -43.5t39.5 -27.5t50 -9.5q44 0 72 22
t42 56h142q-10 -43 -32 -80t-54.5 -64t-75 -42.5t-94.5 -15.5zM299 577q-32 0 -54 22t-22 53q0 32 22 54t54 22q31 0 53 -22t22 -54q0 -31 -22 -53t-53 -22z" />
    <glyph glyph-name="dcaron" unicode="&#x10f;" horiz-adv-x="617" 
d="M269 -11q-50 0 -93 21t-74.5 56.5t-49.5 83t-18 100.5t18 100.5t49.5 83t74.5 56.5t93 21q52 0 89.5 -21.5t54.5 -45.5v306h137v-750h-137v56q-17 -24 -54.5 -45.5t-89.5 -21.5zM298 114q57 0 91.5 38.5t34.5 97.5t-34.5 97.5t-91.5 38.5t-91.5 -38.5t-34.5 -97.5
t34.5 -97.5t91.5 -38.5zM591 750h137l-65 -161h-93z" />
    <glyph glyph-name="dcroat" unicode="&#x111;" horiz-adv-x="617" 
d="M269 -11q-50 0 -93 21t-74.5 56.5t-49.5 83t-18 100.5t18 100.5t49.5 83t74.5 56.5t93 21q52 0 89.5 -21.5t54.5 -45.5v306h137v-750h-137v56q-17 -24 -54.5 -45.5t-89.5 -21.5zM298 114q57 0 91.5 38.5t34.5 97.5t-34.5 97.5t-91.5 38.5t-91.5 -38.5t-34.5 -97.5
t34.5 -97.5t91.5 -38.5zM273 567v90h339v-90h-339z" />
    <glyph glyph-name="ebreve" unicode="&#x115;" horiz-adv-x="592" 
d="M296 -11q-57 0 -105.5 19.5t-83 54.5t-54 83t-19.5 105q0 56 19.5 103.5t55 82.5t83.5 54.5t105 19.5q55 0 103.5 -19.5t84.5 -56.5t56 -92t17 -125h-390q2 -22 11 -42t26 -35t41.5 -24t56.5 -9q36 0 65 14.5t41 40.5h143q-11 -38 -34.5 -70t-57 -55t-75 -36t-89.5 -13z
M293 400q-48 0 -79 -25t-41 -67h235q-6 25 -18.5 42.5t-28 28.5t-33 16t-35.5 5zM301 558q-36 0 -67.5 12.5t-55.5 35t-37.5 54.5t-13.5 72v18h80v-18q0 -47 28 -71t66 -24t66 24t28 71v18h80v-18q0 -40 -13.5 -72t-37.5 -54.5t-55.5 -35t-67.5 -12.5z" />
    <glyph glyph-name="ecaron" unicode="&#x11b;" horiz-adv-x="592" 
d="M296 -11q-57 0 -105.5 19.5t-83 54.5t-54 83t-19.5 105q0 56 19.5 103.5t55 82.5t83.5 54.5t105 19.5q55 0 103.5 -19.5t84.5 -56.5t56 -92t17 -125h-390q2 -22 11 -42t26 -35t41.5 -24t56.5 -9q36 0 65 14.5t41 40.5h143q-11 -38 -34.5 -70t-57 -55t-75 -36t-89.5 -13z
M293 400q-48 0 -79 -25t-41 -67h235q-6 25 -18.5 42.5t-28 28.5t-33 16t-35.5 5zM127 646v110l174 -98l174 98v-110l-174 -98z" />
    <glyph glyph-name="emacron" unicode="&#x113;" horiz-adv-x="592" 
d="M296 -11q-57 0 -105.5 19.5t-83 54.5t-54 83t-19.5 105q0 56 19.5 103.5t55 82.5t83.5 54.5t105 19.5q55 0 103.5 -19.5t84.5 -56.5t56 -92t17 -125h-390q2 -22 11 -42t26 -35t41.5 -24t56.5 -9q36 0 65 14.5t41 40.5h143q-11 -38 -34.5 -70t-57 -55t-75 -36t-89.5 -13z
M293 400q-48 0 -79 -25t-41 -67h235q-6 25 -18.5 42.5t-28 28.5t-33 16t-35.5 5zM130 710h342v-97h-342v97z" />
    <glyph glyph-name="eogonek" unicode="&#x119;" horiz-adv-x="593" 
d="M552 163q-5 -19 -14 -35t-20 -33q-41 -71 -54.5 -112t-13.5 -61t12.5 -32t33.5 -12q14 0 26 5t20 11v-85q-12 -9 -39 -18.5t-59 -9.5q-52 0 -82.5 29t-30.5 74q0 29 12 57t37 60q-27 -8 -46.5 -10t-37.5 -2q-57 0 -105.5 19.5t-83 54.5t-54 83t-19.5 105q0 56 19.5 103.5
t55 82.5t83.5 54.5t105 19.5q55 0 103.5 -19.5t84.5 -56.5t56 -92t17 -125h-390q2 -22 11 -42t26 -35t41.5 -24t56.5 -9q36 0 65 14.5t41 40.5h143zM293 400q-48 0 -79 -25t-41 -67h235q-6 25 -18.5 42.5t-28 28.5t-33 16t-35.5 5z" />
    <glyph glyph-name="edotaccent" unicode="&#x117;" horiz-adv-x="592" 
d="M296 -11q-57 0 -105.5 19.5t-83 54.5t-54 83t-19.5 105q0 56 19.5 103.5t55 82.5t83.5 54.5t105 19.5q55 0 103.5 -19.5t84.5 -56.5t56 -92t17 -125h-390q2 -22 11 -42t26 -35t41.5 -24t56.5 -9q36 0 65 14.5t41 40.5h143q-11 -38 -34.5 -70t-57 -55t-75 -36t-89.5 -13z
M293 400q-48 0 -79 -25t-41 -67h235q-6 25 -18.5 42.5t-28 28.5t-33 16t-35.5 5zM301 577q-32 0 -54 22t-22 53q0 32 22 54t54 22q31 0 53 -22t22 -54q0 -31 -22 -53t-53 -22z" />
    <glyph glyph-name="gbreve" unicode="&#x11f;" horiz-adv-x="618" 
d="M299 -219q-53 0 -96.5 14.5t-75 39.5t-50 59.5t-22.5 74.5h134q25 -74 113 -74q22 0 42.5 7.5t36.5 22t25 36.5t9 52v59q-20 -28 -58.5 -47t-86.5 -19q-49 0 -92 19.5t-75 54t-50.5 80t-18.5 98.5t18.5 99t50.5 80.5t75 54t92 19.5q48 0 86.5 -19t58.5 -48v56h137v-469
q0 -68 -21.5 -115.5t-56.5 -77.5t-80.5 -43.5t-94.5 -13.5zM299 130q26 0 49 9.5t40.5 26t27.5 40t10 52.5t-10 52.5t-27.5 40.5t-40.5 26t-49 9t-49 -9t-40.5 -26t-27.5 -40.5t-10 -52.5t10 -52.5t27.5 -40t40.5 -26t49 -9.5zM312 558q-36 0 -67.5 12.5t-55.5 35
t-37.5 54.5t-13.5 72v18h80v-18q0 -47 28 -71t66 -24t66 24t28 71v18h80v-18q0 -40 -13.5 -72t-37.5 -54.5t-55.5 -35t-67.5 -12.5z" />
    <glyph glyph-name="gcircumflex" unicode="&#x11d;" horiz-adv-x="618" 
d="M299 -219q-53 0 -96.5 14.5t-75 39.5t-50 59.5t-22.5 74.5h134q25 -74 113 -74q22 0 42.5 7.5t36.5 22t25 36.5t9 52v59q-20 -28 -58.5 -47t-86.5 -19q-49 0 -92 19.5t-75 54t-50.5 80t-18.5 98.5t18.5 99t50.5 80.5t75 54t92 19.5q48 0 86.5 -19t58.5 -48v56h137v-469
q0 -68 -21.5 -115.5t-56.5 -77.5t-80.5 -43.5t-94.5 -13.5zM299 130q26 0 49 9.5t40.5 26t27.5 40t10 52.5t-10 52.5t-27.5 40.5t-40.5 26t-49 9t-49 -9t-40.5 -26t-27.5 -40.5t-10 -52.5t10 -52.5t27.5 -40t40.5 -26t49 -9.5zM486 658v-110l-174 98l-174 -98v110l174 98z
" />
    <glyph glyph-name="uni0123" unicode="&#x123;" horiz-adv-x="618" 
d="M299 -219q-53 0 -96.5 14.5t-75 39.5t-50 59.5t-22.5 74.5h134q25 -74 113 -74q22 0 42.5 7.5t36.5 22t25 36.5t9 52v59q-20 -28 -58.5 -47t-86.5 -19q-49 0 -92 19.5t-75 54t-50.5 80t-18.5 98.5t18.5 99t50.5 80.5t75 54t92 19.5q48 0 86.5 -19t58.5 -48v56h137v-469
q0 -68 -21.5 -115.5t-56.5 -77.5t-80.5 -43.5t-94.5 -13.5zM299 130q26 0 49 9.5t40.5 26t27.5 40t10 52.5t-10 52.5t-27.5 40.5t-40.5 26t-49 9t-49 -9t-40.5 -26t-27.5 -40.5t-10 -52.5t10 -52.5t27.5 -40t40.5 -26t49 -9.5zM312 577q-31 0 -53 22t-22 53q0 25 15 48
l72 115h60l-42 -94q18 -8 31.5 -26t13.5 -43q0 -31 -21.5 -53t-53.5 -22z" />
    <glyph glyph-name="gdotaccent" unicode="&#x121;" horiz-adv-x="618" 
d="M299 -219q-53 0 -96.5 14.5t-75 39.5t-50 59.5t-22.5 74.5h134q25 -74 113 -74q22 0 42.5 7.5t36.5 22t25 36.5t9 52v59q-20 -28 -58.5 -47t-86.5 -19q-49 0 -92 19.5t-75 54t-50.5 80t-18.5 98.5t18.5 99t50.5 80.5t75 54t92 19.5q48 0 86.5 -19t58.5 -48v56h137v-469
q0 -68 -21.5 -115.5t-56.5 -77.5t-80.5 -43.5t-94.5 -13.5zM299 130q26 0 49 9.5t40.5 26t27.5 40t10 52.5t-10 52.5t-27.5 40.5t-40.5 26t-49 9t-49 -9t-40.5 -26t-27.5 -40.5t-10 -52.5t10 -52.5t27.5 -40t40.5 -26t49 -9.5zM312 577q-32 0 -54 22t-22 53q0 32 22 54
t54 22q31 0 53 -22t22 -54q0 -31 -22 -53t-53 -22z" />
    <glyph glyph-name="hbar" unicode="&#x127;" horiz-adv-x="599" 
d="M66 0v750h137v-307q20 30 57 49t86 19q45 0 81 -16t61 -44.5t38 -68.5t13 -89v-293h-137v270q0 54 -22.5 85t-65.5 31q-48 0 -79.5 -35t-31.5 -107v-244h-137zM4 567v90h339v-90h-339z" />
    <glyph glyph-name="hcircumflex" unicode="&#x125;" horiz-adv-x="599" 
d="M66 0v750h137v-307q20 30 57 49t86 19q45 0 81 -16t61 -44.5t38 -68.5t13 -89v-293h-137v270q0 54 -22.5 85t-65.5 31q-48 0 -79.5 -35t-31.5 -107v-244h-137zM152 872l174 73l174 -73v-109l-174 72l-174 -72v109z" />
    <glyph glyph-name="dotlessi" unicode="&#x131;" horiz-adv-x="269" 
d="M66 500h137v-500h-137v500z" />
    <glyph glyph-name="ibreve" unicode="&#x12d;" horiz-adv-x="269" 
d="M66 500h137v-500h-137v500zM135 558q-36 0 -67.5 12.5t-55.5 35t-37.5 54.5t-13.5 72v18h80v-18q0 -47 28 -71t66 -24t66 24t28 71v18h80v-18q0 -40 -13.5 -72t-37.5 -54.5t-55.5 -35t-67.5 -12.5z" />
    <glyph glyph-name="imacron" unicode="&#x12b;" horiz-adv-x="269" 
d="M66 500h137v-500h-137v500zM-36 710h342v-97h-342v97z" />
    <glyph glyph-name="iogonek" unicode="&#x12f;" horiz-adv-x="269" 
d="M134 582q-18 0 -33.5 7t-27.5 18.5t-19 27.5t-7 34t7 34t19 27.5t27.5 18.5t33.5 7q37 0 62.5 -25.5t25.5 -61.5t-25.5 -61.5t-62.5 -25.5zM66 500h137v-500h-137v500zM105 -219q-51 0 -79 28t-28 72q0 36 19.5 66.5t48.5 52.5h137q-40 -18 -63 -42t-23 -50
q0 -17 11 -23.5t25 -6.5t28 5t22 11v-85q-12 -9 -39 -18.5t-59 -9.5z" />
    <glyph glyph-name="itilde" unicode="&#x129;" horiz-adv-x="269" 
d="M66 500h137v-500h-137v500zM-50 597q8 54 42.5 83t75.5 29q22 0 41.5 -7t35.5 -16t29.5 -16t25.5 -7q20 0 29 12t15 35h79l-4 -26q-8 -54 -42.5 -83t-75.5 -29q-23 0 -42 7t-35 16t-29.5 16t-25.5 7q-20 0 -29 -12t-15 -35h-79z" />
    <glyph glyph-name="uni1ECB" unicode="&#x1ecb;" horiz-adv-x="269" 
d="M134 582q-18 0 -33.5 7t-27.5 18.5t-19 27.5t-7 34t7 34t19 27.5t27.5 18.5t33.5 7q37 0 62.5 -25.5t25.5 -61.5t-25.5 -61.5t-62.5 -25.5zM66 500h137v-500h-137v500zM135 -219q-32 0 -54 22t-22 53q0 32 22 54t54 22q31 0 53 -22t22 -54q0 -31 -22 -53t-53 -22z" />
    <glyph glyph-name="uni0237" unicode="&#x237;" horiz-adv-x="277" 
d="M211 -38q0 -46 -15 -80t-40.5 -56.5t-59.5 -33.5t-71 -11q-16 0 -30.5 1t-25.5 3v117q5 -1 12.5 -1.5t13.5 -0.5q38 0 58.5 19t20.5 65v516h137v-538z" />
    <glyph glyph-name="jcircumflex" unicode="&#x135;" horiz-adv-x="277" 
d="M211 -38q0 -46 -15 -80t-40.5 -56.5t-59.5 -33.5t-71 -11q-16 0 -30.5 1t-25.5 3v117q5 -1 12.5 -1.5t13.5 -0.5q38 0 58.5 19t20.5 65v516h137v-538zM318 658v-110l-174 98l-174 -98v110l174 98z" />
    <glyph glyph-name="uni0137" unicode="&#x137;" horiz-adv-x="556" 
d="M203 230v-230h-137v750h137v-434l162 184h165l-198 -225l244 -275h-169zM275 -212q-18 8 -31.5 26t-13.5 43q0 31 21.5 53t53.5 22q31 0 53 -22t22 -53q0 -27 -15 -48l-72 -115h-60z" />
    <glyph glyph-name="lacute" unicode="&#x13a;" horiz-adv-x="269" 
d="M66 750h137v-750h-137v750zM195 1000h159l-163 -190h-102z" />
    <glyph glyph-name="lcaron" unicode="&#x13e;" horiz-adv-x="269" 
d="M66 750h137v-750h-137v750zM244 750h137l-65 -161h-93z" />
    <glyph glyph-name="uni013C" unicode="&#x13c;" horiz-adv-x="269" 
d="M66 750h137v-750h-137v750zM105 -212q-18 8 -31.5 26t-13.5 43q0 31 21.5 53t53.5 22q31 0 53 -22t22 -53q0 -27 -15 -48l-72 -115h-60z" />
    <glyph glyph-name="ldot" unicode="&#x140;" horiz-adv-x="404" 
d="M66 750h137v-750h-137v750zM337 298q-32 0 -54 22t-22 53q0 32 22 54t54 22q31 0 53 -22t22 -54q0 -31 -22 -53t-53 -22z" />
    <glyph glyph-name="lslash" unicode="&#x142;" horiz-adv-x="350" 
d="M107 750h137v-750h-137v750zM33 236v107l285 168v-108z" />
    <glyph glyph-name="nacute" unicode="&#x144;" horiz-adv-x="599" 
d="M66 500h137v-57q20 30 57 49t86 19q45 0 81 -16t61 -44.5t38 -68.5t13 -89v-293h-137v270q0 54 -22.5 85t-65.5 31q-48 0 -79.5 -35t-31.5 -107v-244h-137v500zM362 750h159l-163 -190h-102z" />
    <glyph glyph-name="ncaron" unicode="&#x148;" horiz-adv-x="599" 
d="M66 500h137v-57q20 30 57 49t86 19q45 0 81 -16t61 -44.5t38 -68.5t13 -89v-293h-137v270q0 54 -22.5 85t-65.5 31q-48 0 -79.5 -35t-31.5 -107v-244h-137v500zM128 646v110l174 -98l174 98v-110l-174 -98z" />
    <glyph glyph-name="uni0146" unicode="&#x146;" horiz-adv-x="599" 
d="M66 500h137v-57q20 30 57 49t86 19q45 0 81 -16t61 -44.5t38 -68.5t13 -89v-293h-137v270q0 54 -22.5 85t-65.5 31q-48 0 -79.5 -35t-31.5 -107v-244h-137v500zM272 -212q-18 8 -31.5 26t-13.5 43q0 31 21.5 53t53.5 22q31 0 53 -22t22 -53q0 -27 -15 -48l-72 -115h-60z
" />
    <glyph glyph-name="oe" unicode="&#x153;" horiz-adv-x="979" 
d="M296 -11q-54 0 -102 20t-84 55.5t-56.5 83t-20.5 102.5t20.5 102.5t56.5 82.5t84 55.5t102 20.5q57 0 106.5 -22.5t85.5 -60.5q35 38 85 60.5t110 22.5q55 0 103.5 -19.5t84.5 -56.5t56 -92t17 -125h-390q2 -22 11.5 -42t26 -35t41 -24t56.5 -9q36 0 65.5 14.5t40.5 40.5
h144q-12 -38 -35.5 -70t-57 -55t-75 -36t-89.5 -13q-60 0 -110 21.5t-85 59.5q-36 -38 -85 -59.5t-106 -21.5zM296 117q27 0 49.5 10t39 27.5t26 42t9.5 53.5t-9.5 53.5t-26 42t-39 27.5t-49.5 10t-50 -10t-39.5 -27.5t-26 -42t-9.5 -53.5t9.5 -53.5t26 -42t39.5 -27.5
t50 -10zM679 400q-48 0 -79 -25t-41 -67h235q-6 25 -18.5 42.5t-28 28.5t-33 16t-35.5 5z" />
    <glyph glyph-name="obreve" unicode="&#x14f;" horiz-adv-x="592" 
d="M296 -11q-54 0 -102 20t-84 55.5t-56.5 83t-20.5 102.5t20.5 102.5t56.5 82.5t84 55.5t102 20.5t102 -20.5t84 -55.5t56.5 -82.5t20.5 -102.5t-20.5 -102.5t-56.5 -83t-84 -55.5t-102 -20zM296 117q27 0 49.5 10t39 27.5t26 42t9.5 53.5t-9.5 53.5t-26 42t-39 27.5
t-49.5 10t-50 -10t-39.5 -27.5t-26 -42t-9.5 -53.5t9.5 -53.5t26 -42t39.5 -27.5t50 -10zM296 558q-36 0 -67.5 12.5t-55.5 35t-37.5 54.5t-13.5 72v18h80v-18q0 -47 28 -71t66 -24t66 24t28 71v18h80v-18q0 -40 -13.5 -72t-37.5 -54.5t-55.5 -35t-67.5 -12.5z" />
    <glyph glyph-name="ohungarumlaut" unicode="&#x151;" horiz-adv-x="592" 
d="M296 -11q-54 0 -102 20t-84 55.5t-56.5 83t-20.5 102.5t20.5 102.5t56.5 82.5t84 55.5t102 20.5t102 -20.5t84 -55.5t56.5 -82.5t20.5 -102.5t-20.5 -102.5t-56.5 -83t-84 -55.5t-102 -20zM296 117q27 0 49.5 10t39 27.5t26 42t9.5 53.5t-9.5 53.5t-26 42t-39 27.5
t-49.5 10t-50 -10t-39.5 -27.5t-26 -42t-9.5 -53.5t9.5 -53.5t26 -42t39.5 -27.5t50 -10zM401 750h144l-123 -190h-87zM219 750h144l-123 -190h-87z" />
    <glyph glyph-name="omacron" unicode="&#x14d;" horiz-adv-x="592" 
d="M296 -11q-54 0 -102 20t-84 55.5t-56.5 83t-20.5 102.5t20.5 102.5t56.5 82.5t84 55.5t102 20.5t102 -20.5t84 -55.5t56.5 -82.5t20.5 -102.5t-20.5 -102.5t-56.5 -83t-84 -55.5t-102 -20zM296 117q27 0 49.5 10t39 27.5t26 42t9.5 53.5t-9.5 53.5t-26 42t-39 27.5
t-49.5 10t-50 -10t-39.5 -27.5t-26 -42t-9.5 -53.5t9.5 -53.5t26 -42t39.5 -27.5t50 -10zM125 710h342v-97h-342v97z" />
    <glyph glyph-name="uni1ECD" unicode="&#x1ecd;" horiz-adv-x="592" 
d="M296 -11q-54 0 -102 20t-84 55.5t-56.5 83t-20.5 102.5t20.5 102.5t56.5 82.5t84 55.5t102 20.5t102 -20.5t84 -55.5t56.5 -82.5t20.5 -102.5t-20.5 -102.5t-56.5 -83t-84 -55.5t-102 -20zM296 117q27 0 49.5 10t39 27.5t26 42t9.5 53.5t-9.5 53.5t-26 42t-39 27.5
t-49.5 10t-50 -10t-39.5 -27.5t-26 -42t-9.5 -53.5t9.5 -53.5t26 -42t39.5 -27.5t50 -10zM296 -219q-32 0 -54 22t-22 53q0 32 22 54t54 22q31 0 53 -22t22 -54q0 -31 -22 -53t-53 -22z" />
    <glyph glyph-name="racute" unicode="&#x155;" horiz-adv-x="395" 
d="M66 500h137v-80q13 37 47.5 61.5t76.5 24.5q11 0 22 -1t24 -5v-139q-16 5 -30.5 8t-31.5 3q-49 0 -78.5 -35.5t-29.5 -97.5v-239h-137v500zM279 750h159l-163 -190h-102z" />
    <glyph glyph-name="rcaron" unicode="&#x159;" horiz-adv-x="395" 
d="M66 500h137v-80q13 37 47.5 61.5t76.5 24.5q11 0 22 -1t24 -5v-139q-16 5 -30.5 8t-31.5 3q-49 0 -78.5 -35.5t-29.5 -97.5v-239h-137v500zM45 646v110l174 -98l174 98v-110l-174 -98z" />
    <glyph glyph-name="uni0157" unicode="&#x157;" horiz-adv-x="395" 
d="M66 500h137v-80q13 37 47.5 61.5t76.5 24.5q11 0 22 -1t24 -5v-139q-16 5 -30.5 8t-31.5 3q-49 0 -78.5 -35.5t-29.5 -97.5v-239h-137v500zM104 -212q-18 8 -31.5 26t-13.5 43q0 31 21.5 53t53.5 22q31 0 53 -22t22 -53q0 -27 -15 -48l-72 -115h-60z" />
    <glyph glyph-name="sacute" unicode="&#x15b;" horiz-adv-x="501" 
d="M259 -11q-48 0 -89 13t-70.5 35.5t-47 53.5t-19.5 68h143q4 -33 29 -49t58 -16q32 0 48.5 11t16.5 29q0 20 -15 31t-48 19l-94 24q-66 17 -96.5 58.5t-30.5 96.5q0 32 14 59.5t40 47t63 30.5t84 11q41 0 76.5 -10.5t62.5 -31t43.5 -50t19.5 -66.5h-138q-5 29 -24 40
t-42 11q-26 0 -42.5 -10t-16.5 -28q0 -21 17 -31t40 -15l88 -24q74 -19 106.5 -57.5t32.5 -97.5q0 -35 -15.5 -63.5t-43.5 -48t-66.5 -30t-83.5 -10.5zM311 750h159l-163 -190h-102z" />
    <glyph glyph-name="scaron" unicode="&#x161;" horiz-adv-x="501" 
d="M259 -11q-48 0 -89 13t-70.5 35.5t-47 53.5t-19.5 68h143q4 -33 29 -49t58 -16q32 0 48.5 11t16.5 29q0 20 -15 31t-48 19l-94 24q-66 17 -96.5 58.5t-30.5 96.5q0 32 14 59.5t40 47t63 30.5t84 11q41 0 76.5 -10.5t62.5 -31t43.5 -50t19.5 -66.5h-138q-5 29 -24 40
t-42 11q-26 0 -42.5 -10t-16.5 -28q0 -21 17 -31t40 -15l88 -24q74 -19 106.5 -57.5t32.5 -97.5q0 -35 -15.5 -63.5t-43.5 -48t-66.5 -30t-83.5 -10.5zM78 646v110l174 -98l174 98v-110l-174 -98z" />
    <glyph glyph-name="scedilla" unicode="&#x15f;" horiz-adv-x="501" 
d="M259 -11q-48 0 -89 13t-70.5 35.5t-47 53.5t-19.5 68h143q4 -33 29 -49t58 -16q32 0 48.5 11t16.5 29q0 20 -15 31t-48 19l-94 24q-66 17 -96.5 58.5t-30.5 96.5q0 32 14 59.5t40 47t63 30.5t84 11q41 0 76.5 -10.5t62.5 -31t43.5 -50t19.5 -66.5h-138q-5 29 -24 40
t-42 11q-26 0 -42.5 -10t-16.5 -28q0 -21 17 -31t40 -15l88 -24q74 -19 106.5 -57.5t32.5 -97.5q0 -35 -15.5 -63.5t-43.5 -48t-66.5 -30t-83.5 -10.5zM129 -141q16 -9 37 -13t39 -4q21 0 41.5 6.5t20.5 26.5q0 14 -12 21t-32 7q-9 0 -20 -2.5t-21 -7.5l-35 19l55 91h62
l-31 -51q11 3 22 5t25 2q36 0 60.5 -20.5t24.5 -58.5q0 -23 -11.5 -41t-30.5 -31t-43.5 -20t-50.5 -7q-22 0 -48.5 2.5t-51.5 12.5v63z" />
    <glyph glyph-name="scircumflex" unicode="&#x15d;" horiz-adv-x="501" 
d="M259 -11q-48 0 -89 13t-70.5 35.5t-47 53.5t-19.5 68h143q4 -33 29 -49t58 -16q32 0 48.5 11t16.5 29q0 20 -15 31t-48 19l-94 24q-66 17 -96.5 58.5t-30.5 96.5q0 32 14 59.5t40 47t63 30.5t84 11q41 0 76.5 -10.5t62.5 -31t43.5 -50t19.5 -66.5h-138q-5 29 -24 40
t-42 11q-26 0 -42.5 -10t-16.5 -28q0 -21 17 -31t40 -15l88 -24q74 -19 106.5 -57.5t32.5 -97.5q0 -35 -15.5 -63.5t-43.5 -48t-66.5 -30t-83.5 -10.5zM426 658v-110l-174 98l-174 -98v110l174 98z" />
    <glyph glyph-name="uni0219" unicode="&#x219;" horiz-adv-x="501" 
d="M259 -11q-48 0 -89 13t-70.5 35.5t-47 53.5t-19.5 68h143q4 -33 29 -49t58 -16q32 0 48.5 11t16.5 29q0 20 -15 31t-48 19l-94 24q-66 17 -96.5 58.5t-30.5 96.5q0 32 14 59.5t40 47t63 30.5t84 11q41 0 76.5 -10.5t62.5 -31t43.5 -50t19.5 -66.5h-138q-5 29 -24 40
t-42 11q-26 0 -42.5 -10t-16.5 -28q0 -21 17 -31t40 -15l88 -24q74 -19 106.5 -57.5t32.5 -97.5q0 -35 -15.5 -63.5t-43.5 -48t-66.5 -30t-83.5 -10.5zM213 -212q-18 8 -31.5 26t-13.5 43q0 31 21.5 53t53.5 22q31 0 53 -22t22 -53q0 -27 -15 -48l-72 -115h-60z" />
    <glyph glyph-name="tcaron" unicode="&#x165;" horiz-adv-x="427" 
d="M308 -6q-40 0 -74.5 11t-60.5 33.5t-41 56.5t-15 80v205h-101v120h101v139h137v-139h141v-120h-141v-178q0 -46 20 -65.5t65 -19.5q32 0 56 9v-121q-17 -5 -37.5 -8t-49.5 -3zM295 710h137l-65 -161h-93z" />
    <glyph glyph-name="uni0163" unicode="&#x163;" horiz-adv-x="427" 
d="M308 -6q-40 0 -74.5 11t-60.5 33.5t-41 56.5t-15 80v205h-101v120h101v139h137v-139h141v-120h-141v-178q0 -46 20 -65.5t65 -19.5q32 0 56 9v-121q-17 -5 -37.5 -8t-49.5 -3zM237 -212q-18 8 -31.5 26t-13.5 43q0 31 21.5 53t53.5 22q31 0 53 -22t22 -53q0 -27 -15 -48
l-72 -115h-60z" />
    <glyph glyph-name="uni021B" unicode="&#x21b;" horiz-adv-x="427" 
d="M308 -6q-40 0 -74.5 11t-60.5 33.5t-41 56.5t-15 80v205h-101v120h101v139h137v-139h141v-120h-141v-178q0 -46 20 -65.5t65 -19.5q32 0 56 9v-121q-17 -5 -37.5 -8t-49.5 -3zM237 -212q-18 8 -31.5 26t-13.5 43q0 31 21.5 53t53.5 22q31 0 53 -22t22 -53q0 -27 -15 -48
l-72 -115h-60z" />
    <glyph glyph-name="ubreve" unicode="&#x16d;" horiz-adv-x="588" 
d="M248 -11q-45 0 -80 16t-59 45t-36.5 69.5t-12.5 90.5v290h137v-267q0 -57 20 -88t65 -31q46 0 74.5 34.5t28.5 107.5v244h137v-500h-137v57q-20 -30 -54.5 -49t-82.5 -19zM291 558q-36 0 -67.5 12.5t-55.5 35t-37.5 54.5t-13.5 72v18h80v-18q0 -47 28 -71t66 -24t66 24
t28 71v18h80v-18q0 -40 -13.5 -72t-37.5 -54.5t-55.5 -35t-67.5 -12.5z" />
    <glyph glyph-name="uhungarumlaut" unicode="&#x171;" horiz-adv-x="588" 
d="M248 -11q-45 0 -80 16t-59 45t-36.5 69.5t-12.5 90.5v290h137v-267q0 -57 20 -88t65 -31q46 0 74.5 34.5t28.5 107.5v244h137v-500h-137v57q-20 -30 -54.5 -49t-82.5 -19zM396 750h144l-123 -190h-87zM214 750h144l-123 -190h-87z" />
    <glyph glyph-name="umacron" unicode="&#x16b;" horiz-adv-x="588" 
d="M248 -11q-45 0 -80 16t-59 45t-36.5 69.5t-12.5 90.5v290h137v-267q0 -57 20 -88t65 -31q46 0 74.5 34.5t28.5 107.5v244h137v-500h-137v57q-20 -30 -54.5 -49t-82.5 -19zM120 710h342v-97h-342v97z" />
    <glyph glyph-name="uogonek" unicode="&#x173;" horiz-adv-x="588" 
d="M248 -11q-45 0 -80 16t-59 45t-36.5 69.5t-12.5 90.5v290h137v-267q0 -57 20 -88t65 -31q46 0 74.5 34.5t28.5 107.5v244h137v-500h-137v57q-20 -30 -54.5 -49t-82.5 -19zM424 -219q-51 0 -79 28t-28 72q0 36 19.5 66.5t48.5 52.5h137q-40 -18 -63 -42t-23 -50
q0 -17 11 -23.5t25 -6.5t28 5t22 11v-85q-12 -9 -39 -18.5t-59 -9.5z" />
    <glyph glyph-name="uring" unicode="&#x16f;" horiz-adv-x="588" 
d="M248 -11q-45 0 -80 16t-59 45t-36.5 69.5t-12.5 90.5v290h137v-267q0 -57 20 -88t65 -31q46 0 74.5 34.5t28.5 107.5v244h137v-500h-137v57q-20 -30 -54.5 -49t-82.5 -19zM292 543q-25 0 -47 9.5t-38.5 26t-26.5 38t-10 46.5t10 46.5t26.5 38t38.5 26t47 9.5t47 -9.5
t38.5 -26t26.5 -38t10 -46.5t-10 -46.5t-26.5 -38t-38.5 -26t-47 -9.5zM292 605q25 0 42 17t17 41t-17 41t-42 17t-42 -17t-17 -41t17 -41t42 -17z" />
    <glyph glyph-name="utilde" unicode="&#x169;" horiz-adv-x="588" 
d="M248 -11q-45 0 -80 16t-59 45t-36.5 69.5t-12.5 90.5v290h137v-267q0 -57 20 -88t65 -31q46 0 74.5 34.5t28.5 107.5v244h137v-500h-137v57q-20 -30 -54.5 -49t-82.5 -19zM106 597q8 54 42.5 83t75.5 29q22 0 41.5 -7t35.5 -16t29.5 -16t25.5 -7q20 0 29 12t15 35h79
l-4 -26q-8 -54 -42.5 -83t-75.5 -29q-23 0 -42 7t-35 16t-29.5 16t-25.5 7q-20 0 -29 -12t-15 -35h-79z" />
    <glyph glyph-name="uni1EE5" unicode="&#x1ee5;" horiz-adv-x="588" 
d="M248 -11q-45 0 -80 16t-59 45t-36.5 69.5t-12.5 90.5v290h137v-267q0 -57 20 -88t65 -31q46 0 74.5 34.5t28.5 107.5v244h137v-500h-137v57q-20 -30 -54.5 -49t-82.5 -19zM297 -219q-32 0 -54 22t-22 53q0 32 22 54t54 22q31 0 53 -22t22 -54q0 -31 -22 -53t-53 -22z" />
    <glyph glyph-name="wacute" unicode="&#x1e83;" horiz-adv-x="800" 
d="M400 284l-93 -284h-136l-166 500h146l95 -320l101 320h105l102 -320l94 320h147l-165 -500h-136zM461 750h159l-163 -190h-102z" />
    <glyph glyph-name="wcircumflex" unicode="&#x175;" horiz-adv-x="800" 
d="M400 284l-93 -284h-136l-166 500h146l95 -320l101 320h105l102 -320l94 320h147l-165 -500h-136zM575 658v-110l-174 98l-174 -98v110l174 98z" />
    <glyph glyph-name="wdieresis" unicode="&#x1e85;" horiz-adv-x="800" 
d="M400 284l-93 -284h-136l-166 500h146l95 -320l101 320h105l102 -320l94 320h147l-165 -500h-136zM284 577q-32 0 -54 22t-22 53q0 32 22 54t54 22q31 0 53 -22t22 -54q0 -31 -22 -53t-53 -22zM519 577q-32 0 -54 22t-22 53q0 32 22 54t54 22q31 0 53 -22t22 -54
q0 -31 -22 -53t-53 -22z" />
    <glyph glyph-name="wgrave" unicode="&#x1e81;" horiz-adv-x="800" 
d="M400 284l-93 -284h-136l-166 500h146l95 -320l101 320h105l102 -320l94 320h147l-165 -500h-136zM187 750h159l106 -190h-102z" />
    <glyph glyph-name="ycircumflex" unicode="&#x177;" horiz-adv-x="570" 
d="M107 -209l105 237l-210 472h150l134 -324l133 324h151l-314 -709h-149zM462 658v-110l-174 98l-174 -98v110l174 98z" />
    <glyph glyph-name="ygrave" unicode="&#x1ef3;" horiz-adv-x="570" 
d="M107 -209l105 237l-210 472h150l134 -324l133 324h151l-314 -709h-149zM73 750h159l106 -190h-102z" />
    <glyph glyph-name="uni0233" unicode="&#x233;" horiz-adv-x="570" 
d="M107 -209l105 237l-210 472h150l134 -324l133 324h151l-314 -709h-149zM117 710h342v-97h-342v97z" />
    <glyph glyph-name="zacute" unicode="&#x17a;" horiz-adv-x="498" 
d="M41 107l234 269h-231v124h408v-108l-234 -268h242v-124h-419v107zM308 750h159l-163 -190h-102z" />
    <glyph glyph-name="zcaron" unicode="&#x17e;" horiz-adv-x="498" 
d="M41 107l234 269h-231v124h408v-108l-234 -268h242v-124h-419v107zM74 646v110l174 -98l174 98v-110l-174 -98z" />
    <glyph glyph-name="zdotaccent" unicode="&#x17c;" horiz-adv-x="498" 
d="M41 107l234 269h-231v124h408v-108l-234 -268h242v-124h-419v107zM248 577q-32 0 -54 22t-22 53q0 32 22 54t54 22q31 0 53 -22t22 -54q0 -31 -22 -53t-53 -22z" />
    <glyph glyph-name="ellipsis" unicode="&#x2026;" horiz-adv-x="800" 
d="M400 -8q-42 0 -71 29t-29 71t29 71t71 29q21 0 39 -8t31.5 -21.5t21.5 -31.5t8 -39t-8 -39t-21.5 -31.5t-31.5 -21.5t-39 -8zM666 -8q-42 0 -71 29t-29 71t29 71t71 29q21 0 39 -8t31.5 -21.5t21.5 -31.5t8 -39t-8 -39t-21.5 -31.5t-31.5 -21.5t-39 -8zM134 -8
q-42 0 -71 29t-29 71t29 71t71 29q21 0 39 -8t31.5 -21.5t21.5 -31.5t8 -39t-8 -39t-21.5 -31.5t-31.5 -21.5t-39 -8z" />
    <glyph glyph-name="endash" unicode="&#x2013;" horiz-adv-x="587" 
d="M57 346h473v-132h-473v132z" />
    <glyph glyph-name="emdash" unicode="&#x2014;" horiz-adv-x="881" 
d="M57 346h767v-132h-767v132z" />
    <glyph glyph-name="guilsinglleft" unicode="&#x2039;" horiz-adv-x="322" 
d="M170 467h118l-116 -217l116 -217h-118l-141 217z" />
    <glyph glyph-name="guilsinglright" unicode="&#x203a;" horiz-adv-x="322" 
d="M293 250l-141 -217h-118l116 217l-116 217h118z" />
    <glyph glyph-name="quoteleft" unicode="&#x2018;" horiz-adv-x="275" 
d="M163 710h79l-72 -152q23 -10 41.5 -34.5t18.5 -57.5q0 -42 -29 -71t-71 -29t-71 29t-29 71q0 32 19 64z" />
    <glyph glyph-name="quoteright" unicode="&#x2019;" horiz-adv-x="280" 
d="M124 378h-81l74 152q-23 10 -41.5 34.5t-18.5 57.5q0 42 29 71t71 29t71 -29t29 -71q0 -32 -21 -64z" />
    <glyph glyph-name="quotedblleft" unicode="&#x201c;" horiz-adv-x="505" 
d="M163 710h79l-72 -152q23 -10 41.5 -34.5t18.5 -57.5q0 -42 -29 -71t-71 -29t-71 29t-29 71q0 32 19 64zM393 710h79l-72 -152q23 -10 41.5 -34.5t18.5 -57.5q0 -42 -29 -71t-71 -29t-71 29t-29 71q0 32 19 64z" />
    <glyph glyph-name="quotedblright" unicode="&#x201d;" horiz-adv-x="510" 
d="M124 378h-81l74 152q-23 10 -41.5 34.5t-18.5 57.5q0 42 29 71t71 29t71 -29t29 -71q0 -32 -21 -64zM354 378h-81l74 152q-23 10 -41.5 34.5t-18.5 57.5q0 42 29 71t71 29t71 -29t29 -71q0 -32 -21 -64z" />
    <glyph glyph-name="quotesinglbase" unicode="&#x201a;" horiz-adv-x="282" 
d="M108 -152h-81l73 152q-23 10 -41 34.5t-18 57.5q0 21 7.5 39t21 31.5t32 21.5t39.5 8q42 0 70.5 -29t28.5 -71q0 -17 -5.5 -33t-14.5 -31z" />
    <glyph glyph-name="quotedblbase" unicode="&#x201e;" horiz-adv-x="512" 
d="M108 -152h-81l73 152q-23 10 -41 34.5t-18 57.5q0 21 7.5 39t21 31.5t32 21.5t39.5 8q42 0 70.5 -29t28.5 -71q0 -17 -5.5 -33t-14.5 -31zM338 -152h-81l73 152q-23 10 -41 34.5t-18 57.5q0 21 7.5 39t21 31.5t32 21.5t39.5 8q42 0 70.5 -29t28.5 -71q0 -17 -5.5 -33
t-14.5 -31z" />
    <glyph glyph-name="bullet" unicode="&#x2022;" horiz-adv-x="400" 
d="M200 166q-28 0 -52.5 10.5t-43 29t-29.5 43.5t-11 53t11 53t29.5 43.5t43 29t52.5 10.5t53 -10.5t43.5 -29t29.5 -43.5t11 -53t-11 -53t-29.5 -43.5t-43.5 -29t-53 -10.5z" />
    <glyph glyph-name="minus" unicode="&#x2212;" horiz-adv-x="541" 
d="M60 349h421v-119h-421v119z" />
    <glyph glyph-name="Euro" unicode="&#x20ac;" horiz-adv-x="852" 
d="M28 392l21 57h72q15 60 48.5 110.5t80.5 86.5t105 56t124 20q57 0 108.5 -15t94.5 -43.5t76.5 -69.5t54.5 -94h-157q-32 46 -76 66.5t-100 20.5q-78 0 -134 -38t-81 -100h357l-20 -57h-352q-1 -9 -1.5 -18.5t-0.5 -18.5v-18.5t2 -17.5h326l-19 -56h-293
q25 -63 81.5 -101.5t134.5 -38.5q56 0 100 20.5t76 66.5h157q-21 -53 -54.5 -94t-76.5 -69.5t-94.5 -43.5t-108.5 -15q-66 0 -124.5 20t-105.5 56.5t-80 87t-48 111.5h-93l21 56h62q-1 9 -1 18v18v18.5t1 18.5h-83z" />
    <glyph glyph-name="uniFB01" unicode="&#xfb01;" horiz-adv-x="681" 
d="M119 380h-101v120h101v65q0 46 15 81.5t41 60t60.5 37t74.5 12.5q29 0 49.5 -3t37.5 -8v-121q-24 9 -56 9q-45 0 -65 -19.5t-20 -65.5v-48h141v-120h-141v-380h-137v380zM546 582q-18 0 -33.5 7t-27.5 18.5t-19 27.5t-7 34t7 34t19 27.5t27.5 18.5t33.5 7
q37 0 62.5 -25.5t25.5 -61.5t-25.5 -61.5t-62.5 -25.5zM478 500h137v-500h-137v500z" />
    <glyph glyph-name="uniFB02" unicode="&#xfb02;" horiz-adv-x="681" 
d="M119 380h-101v120h101v65q0 46 15 81.5t41 60t60.5 37t74.5 12.5q29 0 49.5 -3t37.5 -8v-121q-24 9 -56 9q-45 0 -65 -19.5t-20 -65.5v-48h141v-120h-141v-380h-137v380zM478 750h137v-750h-137v750z" />
    <glyph glyph-name="glyph328" 
d="M0 582q-18 0 -33.5 7t-27.5 18.5t-19 27.5t-7 34t7 34t19 27.5t27.5 18.5t33.5 7q37 0 62.5 -25.5t25.5 -61.5t-25.5 -61.5t-62.5 -25.5z" />
    <glyph glyph-name="breve" unicode="&#x2d8;" 
d="M0 558q-36 0 -67.5 12.5t-55.5 35t-37.5 54.5t-13.5 72v18h80v-18q0 -47 28 -71t66 -24t66 24t28 71v18h80v-18q0 -40 -13.5 -72t-37.5 -54.5t-55.5 -35t-67.5 -12.5z" />
    <glyph glyph-name="caron" unicode="&#x2c7;" 
d="M-174 646v110l174 -98l174 98v-110l-174 -98z" />
    <glyph glyph-name="circumflex" unicode="&#x2c6;" 
d="M174 658v-110l-174 98l-174 -98v110l174 98z" />
    <glyph glyph-name="dotaccent" unicode="&#x2d9;" 
d="M0 577q-32 0 -54 22t-22 53q0 32 22 54t54 22q31 0 53 -22t22 -54q0 -31 -22 -53t-53 -22z" />
    <glyph glyph-name="glyph333" 
d="M0 -75q-32 0 -54 22t-22 53q0 32 22 54t54 22q31 0 53 -22t22 -54q0 -31 -22 -53t-53 -22z" />
    <glyph glyph-name="glyph334" 
d="M0 -219q-32 0 -54 22t-22 53q0 32 22 54t54 22q31 0 53 -22t22 -54q0 -31 -22 -53t-53 -22z" />
    <glyph glyph-name="hungarumlaut" unicode="&#x2dd;" 
d="M52 750h144l-123 -190h-87zM-130 750h144l-123 -190h-87z" />
    <glyph glyph-name="glyph336" 
d="M-30 -212q-18 8 -31.5 26t-13.5 43q0 31 21.5 53t53.5 22q31 0 53 -22t22 -53q0 -27 -15 -48l-72 -115h-60z" />
    <glyph glyph-name="ogonek" unicode="&#x2db;" 
d="M4 -219q-51 0 -79 28t-28 72q0 36 19.5 66.5t48.5 52.5h137q-40 -18 -63 -42t-23 -50q0 -17 11 -23.5t25 -6.5t28 5t22 11v-85q-12 -9 -39 -18.5t-59 -9.5z" />
    <glyph glyph-name="ring" unicode="&#x2da;" 
d="M1 543q-25 0 -47 9.5t-38.5 26t-26.5 38t-10 46.5t10 46.5t26.5 38t38.5 26t47 9.5t47 -9.5t38.5 -26t26.5 -38t10 -46.5t-10 -46.5t-26.5 -38t-38.5 -26t-47 -9.5zM1 605q25 0 42 17t17 41t-17 41t-42 17t-42 -17t-17 -41t17 -41t42 -17z" />
    <glyph glyph-name="tilde" unicode="&#x2dc;" 
d="M-185 597q8 54 42.5 83t75.5 29q22 0 41.5 -7t35.5 -16t29.5 -16t25.5 -7q20 0 29 12t15 35h79l-4 -26q-8 -54 -42.5 -83t-75.5 -29q-23 0 -42 7t-35 16t-29.5 16t-25.5 7q-20 0 -29 -12t-15 -35h-79z" />
    <glyph glyph-name="glyph340" 
d="M-58 710h137l-65 -161h-93z" />
    <glyph glyph-name="glyph341" 
d="M0 577q-31 0 -53 22t-22 53q0 25 15 48l72 115h60l-42 -94q18 -8 31.5 -26t13.5 -43q0 -31 -21.5 -53t-53.5 -22z" />
    <glyph glyph-name="glyph342" 
d="M-95 577q-32 0 -54 22t-22 53q0 32 22 54t54 22q31 0 53 -22t22 -54q0 -31 -22 -53t-53 -22zM94 577q-31 0 -53 22t-22 53q0 32 22 54t53 22q32 0 54 -22t22 -54q0 -31 -22 -53t-54 -22z" />
    <glyph glyph-name="glyph343" 
d="M-214 -11l-46 47l474 475l46 -47z" />
    <glyph glyph-name="glyph344" 
d="M-169 567v90h339v-90h-339z" />
    <glyph glyph-name="glyph345" 
d="M-169 567v90h339v-90h-339z" />
    <glyph glyph-name="glyph346" 
d="M-142 236v107l285 168v-108z" />
    <glyph glyph-name="glyph347" 
d="M-41 927h154l-123 -157h-103z" />
    <glyph glyph-name="glyph348" 
d="M0 750q-36 0 -67.5 12.5t-55.5 35t-37.5 55t-13.5 72.5h80q0 -48 28 -71.5t66 -23.5t66 23.5t28 71.5h80q0 -40 -13.5 -72.5t-37.5 -55t-55.5 -35t-67.5 -12.5z" />
    <glyph glyph-name="glyph349" 
d="M-174 835v110l174 -73l174 73v-110l-174 -72z" />
    <glyph glyph-name="glyph350" 
d="M-118 -141q16 -9 37 -13t39 -4q21 0 41.5 6.5t20.5 26.5q0 14 -12 21t-32 7q-9 0 -20 -2.5t-21 -7.5l-35 19l55 91h62l-31 -51q12 3 22.5 5t24.5 2q36 0 60.5 -20.5t24.5 -58.5q0 -23 -11.5 -41t-30.5 -31t-43.5 -20t-50.5 -7q-21 0 -48 2.5t-52 12.5v63z" />
    <glyph glyph-name="glyph351" 
d="M-174 872l174 73l174 -73v-109l-174 72l-174 -72v109z" />
    <glyph glyph-name="glyph352" 
d="M-117 772q-32 0 -54 22t-22 53q0 32 22 54t54 22q31 0 53 -22t22 -54q0 -31 -22 -53t-53 -22zM118 772q-32 0 -54 22t-22 53q0 32 22 54t54 22q31 0 53 -22t22 -54q0 -31 -22 -53t-53 -22z" />
    <glyph glyph-name="glyph353" 
d="M0 772q-32 0 -54 22t-22 53q0 32 22 54t54 22q31 0 53 -22t22 -54q0 -31 -22 -53t-53 -22z" />
    <glyph glyph-name="glyph354" 
d="M0 -75q-32 0 -54 22t-22 53q0 32 22 54t54 22q31 0 53 -22t22 -54q0 -31 -22 -53t-53 -22z" />
    <glyph glyph-name="glyph355" 
d="M0 -219q-32 0 -54 22t-22 53q0 32 22 54t54 22q31 0 53 -22t22 -54q0 -31 -22 -53t-53 -22z" />
    <glyph glyph-name="glyph356" 
d="M-30 -212q-18 8 -31.5 26t-13.5 43q0 31 21.5 53t53.5 22q31 0 53 -22t22 -53q0 -27 -15 -48l-72 -115h-60z" />
    <glyph glyph-name="glyph357" 
d="M10 770l-123 157h154l72 -157h-103z" />
    <glyph glyph-name="glyph358" 
d="M52 927h144l-123 -157h-87zM-130 927h144l-123 -157h-87z" />
    <glyph glyph-name="glyph359" 
d="M-171 887h342v-96h-342v96z" />
    <glyph glyph-name="glyph360" 
d="M4 -219q-51 0 -81 28t-30 72q0 36 19.5 66.5t48.5 52.5h145q-40 -18 -63 -41.5t-23 -46.5q0 -14 11 -20t25 -6t28 5t22 11v-93q-12 -9 -39.5 -18.5t-62.5 -9.5z" />
    <glyph glyph-name="glyph361" 
d="M1 753q-25 0 -47 9.5t-38.5 26t-26.5 38t-10 46.5t10 46.5t26.5 38t38.5 26t47 9.5t47 -9.5t38.5 -26t26.5 -38t10 -46.5t-10 -46.5t-26.5 -38t-38.5 -26t-47 -9.5zM1 815q25 0 42 17t17 41t-17 41t-42 17t-42 -17t-17 -41t17 -41t42 -17z" />
    <glyph glyph-name="glyph362" 
d="M-185 804q8 54 42.5 83t75.5 29q22 0 41.5 -7t35.5 -16t29.5 -16t25.5 -7q20 0 29 12t15 35h79l-4 -26q-8 -54 -42.5 -83t-75.5 -29q-23 0 -42 7t-35 16t-29.5 16t-25.5 7q-20 0 -29 -12t-15 -35h-79z" />
    <glyph glyph-name="glyph363" 
d="M-172 421h345v-126h-345v126z" />
    <glyph glyph-name="glyph364" 
d="M-285 -18l-81 81l649 665l82 -81z" />
    <glyph glyph-name="glyph365" 
d="M-176 213v115l352 207v-116z" />
    <glyph glyph-name="glyph366" 
d="M-371 619h742v-100h-742v100z" />
    </font>
</defs>
</svg>
