<?xml version="1.0" standalone="no"?>
<!DOCTYPE svg PUBLIC "-//W3C//DTD SVG 1.1//EN" "http://www.w3.org/Graphics/SVG/1.1/DTD/svg11.dtd" >
<svg xmlns="http://www.w3.org/2000/svg" xmlns:xlink="http://www.w3.org/1999/xlink" version="1.1">
<metadata>
Created by Christoph Koeberlin (http://christoph.koe.berlin)
Copyright (c) 2018 Swiss Typefaces Sarl. All rights reserved.
</metadata>
<defs>
<font id="Font" horiz-adv-x="0" >
  <font-face 
    font-family="Font"
    font-weight="400"
    font-stretch="normal"
    units-per-em="1000"
    panose-1="2 11 5 4 0 0 0 0 0 0"
    ascent="800"
    descent="-200"
    x-height="500"
    cap-height="710"
    bbox="-361 -269 1100 1000"
    underline-thickness="75"
    underline-position="-170"
    unicode-range="U+0020-FB02"
  />
<missing-glyph horiz-adv-x="682" 
d="M91 710h500v-710h-500v710zM110 682v-654l220 327zM572 28v654l-221 -327zM125 691l216 -321l216 321h-432zM125 19h432l-216 320z" />
    <glyph glyph-name=".notdef" horiz-adv-x="682" 
d="M91 710h500v-710h-500v710zM110 682v-654l220 327zM572 28v654l-221 -327zM125 691l216 -321l216 321h-432zM125 19h432l-216 320z" />
    <glyph glyph-name="glyph1" 
 />
    <glyph glyph-name="glyph2" horiz-adv-x="241" 
 />
    <glyph glyph-name="space" unicode=" " horiz-adv-x="241" 
 />
    <glyph glyph-name="exclam" unicode="!" horiz-adv-x="271" 
d="M92 426v284h87v-284l-17 -204h-53zM135 -8q-31 0 -52.5 22t-21.5 53q0 30 21.5 52.5t52.5 22.5t52.5 -22.5t21.5 -52.5q0 -31 -21.5 -53t-52.5 -22z" />
    <glyph glyph-name="quotedbl" unicode="&#x22;" horiz-adv-x="413" 
d="M66 710h78v-247h-78v247zM268 710h78v-247h-78v247z" />
    <glyph glyph-name="numbersign" unicode="#" horiz-adv-x="737" 
d="M409 200h-181l-61 -200h-80l62 200h-116v73h139l54 171h-120v73h143l60 193h79l-60 -193h180l61 193h78l-60 -193h116v-73h-139l-53 -171h120v-73h-144l-61 -200h-79zM252 273h180l53 171h-180z" />
    <glyph glyph-name="dollar" unicode="$" horiz-adv-x="522" 
d="M237 -8q-39 4 -73.5 19t-60.5 41t-41.5 63t-16.5 85h86q7 -56 35 -86t71 -38v249l-34 13q-80 32 -117 82.5t-37 119.5q0 41 14.5 73.5t40 55.5t60 36t73.5 16v77h54v-79q33 -5 64 -18.5t54.5 -36t38 -53.5t14.5 -70h-86q-6 37 -28 61.5t-57 32.5v-234l25 -10
q79 -32 120.5 -81.5t41.5 -126.5q0 -46 -14.5 -80.5t-39.5 -58.5t-59 -37t-74 -16v-79h-54v80zM392 177q0 48 -26 76.5t-75 49.5v-229q42 5 71.5 33t29.5 70zM135 540q0 -41 24 -68t78 -50v216q-48 -5 -75 -32t-27 -66z" />
    <glyph glyph-name="percent" unicode="%" horiz-adv-x="991" 
d="M224 0l450 710h93l-450 -710h-93zM762 -8q-41 0 -77 15.5t-62.5 42.5t-42 62.5t-15.5 76.5t15.5 77t42 62.5t62.5 42t77 15.5q40 0 76 -15.5t63 -42t42.5 -62.5t15.5 -77t-15.5 -76.5t-42.5 -62.5t-63 -42.5t-76 -15.5zM762 70q24 0 45.5 9.5t37.5 26t25.5 38t9.5 45.5
t-9.5 45.5t-25.5 38t-37.5 26t-45.5 9.5q-25 0 -46.5 -9.5t-37.5 -26t-25 -38t-9 -45.5t9 -45.5t25 -38t37.5 -26t46.5 -9.5zM229 324q-41 0 -77 15.5t-62.5 42.5t-42 62.5t-15.5 76.5t15.5 77t42 62.5t62.5 42t77 15.5q40 0 76 -15.5t63 -42t42.5 -62.5t15.5 -77
t-15.5 -76.5t-42.5 -62.5t-63 -42.5t-76 -15.5zM229 402q24 0 45.5 9.5t37.5 26t25.5 38t9.5 45.5t-9.5 45.5t-25.5 38t-37.5 26t-45.5 9.5q-25 0 -46.5 -9.5t-37.5 -26t-25 -38t-9 -45.5t9 -45.5t25 -38t37.5 -26t46.5 -9.5z" />
    <glyph glyph-name="ampersand" unicode="&#x26;" horiz-adv-x="745" 
d="M284 -10q-49 0 -89 15.5t-68.5 42.5t-44.5 64.5t-16 81.5q0 39 13 69.5t34.5 54.5t48.5 43.5t55 35.5l5 3q-16 15 -31.5 32.5t-27.5 37.5t-19.5 42.5t-7.5 48.5q0 36 14 65.5t38.5 50.5t57.5 33t71 12q39 0 71.5 -13t55.5 -35.5t35.5 -52.5t12.5 -64q0 -33 -11.5 -59.5
t-31 -47.5t-44 -37.5t-50.5 -29.5l151 -148l84 107h100l-128 -162l185 -180h-113l-122 118q-28 -33 -54 -57t-53.5 -39.5t-57 -23.5t-63.5 -8zM287 68q48 0 86.5 25.5t82.5 78.5l-177 172l-13 -7q-53 -28 -83 -60.5t-30 -83.5q0 -30 11 -53t30 -39t43 -24.5t50 -8.5z
M219 559q0 -36 22.5 -63t57.5 -60l5 3q21 11 40 22t33 24.5t22 29.5t8 36q0 42 -25 69t-67 27q-19 0 -36.5 -6t-30.5 -17.5t-21 -27.5t-8 -37z" />
    <glyph glyph-name="quotesingle" unicode="'" horiz-adv-x="211" 
d="M66 710h78v-247h-78v247z" />
    <glyph glyph-name="parenleft" unicode="(" horiz-adv-x="275" 
d="M175 -160q-128 232 -128 480t128 480h70q-64 -124 -92.5 -240.5t-28.5 -239.5t28.5 -239.5t92.5 -240.5h-70z" />
    <glyph glyph-name="parenright" unicode=")" horiz-adv-x="274" 
d="M29 -160q64 124 92.5 240.5t28.5 239.5t-28.5 239.5t-92.5 240.5h70q128 -232 128 -480t-128 -480h-70z" />
    <glyph glyph-name="asterisk" unicode="*" horiz-adv-x="440" 
d="M88 411l77 107l-126 42l19 64l128 -42v128h67v-128l127 41l21 -63l-127 -42l79 -107l-54 -39l-79 107l-78 -107z" />
    <glyph glyph-name="plus" unicode="+" horiz-adv-x="500" 
d="M38 328h173v172h78v-172h172v-77h-172v-172h-78v172h-173v77z" />
    <glyph glyph-name="comma" unicode="," horiz-adv-x="256" 
d="M85 -143h-57l67 143q-18 9 -29.5 26.5t-11.5 40.5q0 30 21.5 52.5t52.5 22.5t52.5 -22.5t21.5 -52.5q0 -13 -4 -24t-10 -21z" />
    <glyph glyph-name="hyphen" unicode="-" horiz-adv-x="386" 
d="M65 323h255v-86h-255v86z" />
    <glyph glyph-name="period" unicode="." horiz-adv-x="252" 
d="M126 -8q-31 0 -52.5 22t-21.5 53q0 30 21.5 52.5t52.5 22.5t52.5 -22.5t21.5 -52.5q0 -31 -21.5 -53t-52.5 -22z" />
    <glyph glyph-name="slash" unicode="/" horiz-adv-x="509" 
d="M407 710h81l-386 -820h-81z" />
    <glyph glyph-name="zero" unicode="0" horiz-adv-x="623" 
d="M311 -10q-55 0 -101 19.5t-79.5 54.5t-52 84.5t-18.5 108.5v198q0 59 18.5 108t52 84.5t79.5 55t101 19.5t101 -19.5t79.5 -55t52.5 -84.5t19 -108v-198q0 -59 -19 -108.5t-52.5 -84.5t-79.5 -54.5t-101 -19.5zM311 74q73 0 119.5 48t46.5 135v198q0 87 -46.5 135
t-119.5 48q-36 0 -66.5 -12.5t-52 -36t-34 -57.5t-12.5 -77v-198q0 -43 12.5 -77t34 -57.5t52 -36t66.5 -12.5z" />
    <glyph glyph-name="one" unicode="1" horiz-adv-x="325" 
d="M145 625h-137l70 85h153v-710h-86v625z" />
    <glyph glyph-name="two" unicode="2" horiz-adv-x="558" 
d="M509 0h-460v34q0 57 22.5 100t57 77.5t77 64t81.5 58.5q31 23 54.5 42.5t39.5 40t24 44t8 54.5q0 56 -36 89.5t-94 33.5q-29 0 -55.5 -9t-47 -26.5t-32.5 -44t-12 -60.5h-88q0 51 18 92.5t49.5 70.5t74.5 45t92 16q44 0 84 -13t70 -39t47.5 -65t17.5 -91q0 -39 -9.5 -71
t-29 -60.5t-51 -57t-74.5 -59.5q-31 -23 -61 -42.5t-54.5 -40.5t-42.5 -45t-24 -55h354v-83z" />
    <glyph glyph-name="three" unicode="3" horiz-adv-x="580" 
d="M297 -10q-53 0 -99 17t-80 47t-54 71.5t-20 90.5h87q2 -32 15.5 -58.5t36 -45t52 -28.5t62.5 -10q30 0 56 8.5t45.5 24.5t31 40t11.5 55q0 66 -43 97t-112 31h-53v79h57q56 0 93 32t38 83q0 25 -10 46t-27 36t-40.5 23.5t-50.5 8.5q-30 0 -57 -9t-47.5 -26.5t-32.5 -43.5
t-12 -61h-88q0 52 18.5 93.5t51 70.5t75.5 44.5t92 15.5q45 0 84.5 -13.5t69 -39t46 -61.5t16.5 -81q-1 -52 -28 -93t-68 -62q54 -22 85 -67t31 -106q0 -47 -17 -85.5t-48 -66t-73.5 -42.5t-93.5 -15z" />
    <glyph glyph-name="four" unicode="4" horiz-adv-x="617" 
d="M395 193h-378v69l389 448h75v-436h98v-81h-98v-193h-86v193zM395 274v306l-266 -306h266z" />
    <glyph glyph-name="five" unicode="5" horiz-adv-x="555" 
d="M274 -10q-48 0 -91 16t-75 44t-51.5 64.5t-20.5 77.5h88q12 -51 52.5 -84.5t97.5 -33.5q33 0 61 12t48.5 32.5t32 48t11.5 59.5t-11 60t-30.5 48.5t-47 32.5t-60.5 12q-46 0 -80 -20t-54 -52l-82 24l73 379h332v-84h-263l-39 -203q21 15 52.5 26t71.5 11q50 0 91.5 -18.5
t71.5 -51.5t46.5 -78t16.5 -97q0 -47 -18.5 -88t-50.5 -71.5t-76 -48t-96 -17.5z" />
    <glyph glyph-name="six" unicode="6" horiz-adv-x="559" 
d="M277 -10q-52 0 -96 18.5t-76.5 50t-50.5 74.5t-18 91q0 56 23.5 99t56.5 82l259 305h109l-217 -257q7 1 13.5 1.5t14.5 0.5q45 0 85 -18.5t70.5 -49.5t48.5 -73t18 -88q0 -49 -18 -92t-50 -75t-76 -50.5t-96 -18.5zM277 73q32 0 60 12t48.5 33t32 48.5t11.5 59.5
q0 31 -11.5 59t-32 49t-48.5 33t-60 12q-33 0 -61 -12t-48.5 -33t-32 -49t-11.5 -59q0 -32 11.5 -59.5t32 -48.5t48.5 -33t61 -12z" />
    <glyph glyph-name="seven" unicode="7" horiz-adv-x="509" 
d="M61 0l331 626h-363v84h466v-72l-338 -638h-96z" />
    <glyph glyph-name="eight" unicode="8" horiz-adv-x="571" 
d="M286 -10q-52 0 -96 16.5t-75.5 46.5t-49.5 71t-18 89q0 64 29.5 111.5t82.5 73.5q-34 24 -53.5 60t-19.5 81q0 40 15 73.5t42 58t63.5 38t79.5 13.5q44 0 80.5 -13.5t63 -38t41 -58t14.5 -73.5q0 -45 -19 -81t-53 -60q53 -26 82 -73.5t29 -111.5q0 -48 -17.5 -89t-49 -71
t-75 -46.5t-96.5 -16.5zM286 72q36 0 64 11t47.5 30t29.5 45t10 55q0 30 -10 56t-29.5 45t-47.5 30t-64 11q-35 0 -63 -11t-48 -30t-30.5 -45t-10.5 -56q0 -29 10.5 -55t30.5 -45t48 -30t63 -11zM286 432q27 0 48 8.5t36 23t22.5 33.5t7.5 40q0 45 -30 74.5t-84 29.5
q-52 0 -83.5 -29.5t-31.5 -74.5q0 -21 8 -40t23 -33.5t36.5 -23t47.5 -8.5z" />
    <glyph glyph-name="nine" unicode="9" horiz-adv-x="559" 
d="M293 258q-8 -1 -14.5 -1h-13.5q-45 0 -85 18.5t-70.5 49.5t-48.5 72.5t-18 87.5q0 49 18 92.5t50 75.5t76 50.5t96 18.5t96 -18.5t76 -50t50.5 -74.5t18.5 -91q0 -56 -23.5 -99t-56.5 -82l-260 -307h-110zM283 333q33 0 61 12t48.5 33t32 48.5t11.5 59.5q0 31 -11.5 59
t-32 49t-48.5 33t-61 12t-60.5 -12t-48 -33t-32 -49t-11.5 -59q0 -32 11.5 -59.5t32 -48.5t48 -33t60.5 -12z" />
    <glyph glyph-name="colon" unicode=":" horiz-adv-x="274" 
d="M137 362q-31 0 -52.5 22t-21.5 53q0 30 21.5 52.5t52.5 22.5t52.5 -22.5t21.5 -52.5q0 -31 -21.5 -53t-52.5 -22zM137 -8q-31 0 -52.5 22t-21.5 53q0 30 21.5 52.5t52.5 22.5t52.5 -22.5t21.5 -52.5q0 -31 -21.5 -53t-52.5 -22z" />
    <glyph glyph-name="semicolon" unicode=";" horiz-adv-x="285" 
d="M101 -143h-57l67 143q-18 9 -29.5 26.5t-11.5 40.5q0 30 21.5 52.5t52.5 22.5t52.5 -22.5t21.5 -52.5q0 -13 -4 -24t-10 -21zM144 362q-31 0 -52.5 22t-21.5 53q0 30 21.5 52.5t52.5 22.5t52.5 -22.5t21.5 -52.5q0 -31 -21.5 -53t-52.5 -22z" />
    <glyph glyph-name="equal" unicode="=" horiz-adv-x="560" 
d="M68 219h424v-76h-424v76zM68 437h424v-77h-424v77z" />
    <glyph glyph-name="question" unicode="?" horiz-adv-x="506" 
d="M190 256q0 20 8.5 38.5t22 35.5t29.5 31t31 25q21 15 38 29t29 29t19 32t7 40q0 26 -9 48t-24.5 38.5t-37.5 26t-49 9.5q-59 0 -97 -36.5t-38 -96.5h-86q0 45 16.5 84.5t46 69t70 46.5t88.5 17q47 0 85 -16.5t65 -45t41.5 -65.5t14.5 -77q0 -34 -9.5 -61t-25 -49t-34 -39
t-36.5 -31q-14 -11 -28 -21.5t-25.5 -22t-18.5 -24t-7 -26.5v-8h-86v20zM232 -8q-31 0 -52.5 22t-21.5 53q0 30 21.5 52.5t52.5 22.5t52.5 -22.5t21.5 -52.5q0 -31 -21.5 -53t-52.5 -22z" />
    <glyph glyph-name="at" unicode="@" horiz-adv-x="812" 
d="M396 -10q-81 0 -145.5 27t-110 74t-69.5 110.5t-24 135.5q0 85 32 156t85.5 122t124 79t147.5 28q72 0 134 -22.5t108 -63.5t72 -99.5t26 -130.5q0 -65 -15 -111.5t-40 -76.5t-57 -44.5t-66 -14.5q-47 0 -71 18.5t-34 41.5q-19 -26 -55 -42.5t-73 -16.5q-32 0 -60 12
t-49 34t-33 54t-12 73q0 47 16 87t43.5 69t64 45.5t78.5 16.5q46 0 76 -22t39 -49l12 62h76l-50 -238q-7 -33 -0.5 -56t39.5 -23q45 0 73 44.5t28 138.5q0 57 -20.5 103t-57 78.5t-86 50t-107.5 17.5q-63 0 -120 -22.5t-101 -64t-70 -101t-26 -132.5q0 -62 19.5 -113.5
t55.5 -89t87.5 -58.5t115.5 -21q45 0 94 9.5t90 29.5v-71q-44 -17 -93 -25t-91 -8zM376 228q48 0 83 32.5t44 81.5q5 30 1 55.5t-15.5 44.5t-30.5 30t-44 11q-47 0 -82 -32.5t-44 -81.5q-5 -30 -1 -56t15.5 -44.5t30.5 -29.5t43 -11z" />
    <glyph glyph-name="A" unicode="A" horiz-adv-x="718" 
d="M320 710h77l315 -710h-97l-92 207h-331l-90 -207h-96zM229 291h257l-129 293z" />
    <glyph glyph-name="B" unicode="B" horiz-adv-x="629" 
d="M94 710h233q49 0 88.5 -15.5t67 -41t42 -60t14.5 -71.5q0 -53 -21 -88.5t-55 -56.5q52 -19 87.5 -59t35.5 -111q0 -44 -17 -82t-48 -66t-75 -43.5t-98 -15.5h-254v710zM352 84q72 0 107.5 33.5t35.5 86.5q0 52 -35.5 86.5t-106.5 34.5h-166v-241h165zM327 405q57 0 89 31
t32 79q0 45 -32 78t-89 33h-140v-221h140z" />
    <glyph glyph-name="C" unicode="C" horiz-adv-x="788" 
d="M414 -12q-78 0 -145.5 28t-117 77.5t-77.5 116.5t-28 145t28 145t77.5 116.5t117 77.5t145.5 28q67 0 124 -20.5t101.5 -54.5t73.5 -78.5t41 -92.5h-98q-12 33 -34.5 62t-54 50.5t-70.5 33.5t-83 12q-59 0 -109.5 -21.5t-87.5 -59t-57.5 -88.5t-20.5 -110t20.5 -110
t57.5 -88.5t87.5 -59t109.5 -21.5q44 0 83 12t70.5 33.5t54 50.5t34.5 62h98q-12 -48 -41 -92.5t-73.5 -78.5t-101.5 -54.5t-124 -20.5z" />
    <glyph glyph-name="D" unicode="D" horiz-adv-x="721" 
d="M94 710h204q82 0 151 -27t119.5 -74.5t79 -112.5t28.5 -141t-28.5 -141t-79 -112.5t-119.5 -74.5t-151 -27h-204v710zM298 87q64 0 116.5 20t89.5 56t57.5 85t20.5 107t-20.5 107t-57.5 85t-89.5 56t-116.5 20h-111v-536h111z" />
    <glyph glyph-name="E" unicode="E" horiz-adv-x="557" 
d="M94 710h414v-88h-321v-215h261v-88h-261v-231h321v-88h-414v710z" />
    <glyph glyph-name="F" unicode="F" horiz-adv-x="531" 
d="M94 710h413v-88h-320v-215h253v-88h-253v-319h-93v710z" />
    <glyph glyph-name="G" unicode="G" horiz-adv-x="816" 
d="M414 -12q-78 0 -145.5 28t-117 77.5t-77.5 116.5t-28 145t28 145t77.5 116.5t117 77.5t145.5 28q63 0 117.5 -18t98 -48.5t74.5 -71t46 -84.5h-103q-29 58 -90.5 96t-142.5 38q-59 0 -109.5 -21.5t-87.5 -59t-57.5 -88.5t-20.5 -110t20.5 -110t57.5 -88.5t87.5 -59
t109.5 -21.5q55 0 100.5 18t79.5 50.5t54.5 77t25.5 97.5h-264v87h360q7 -97 -18.5 -174.5t-74.5 -131.5t-117 -83t-146 -29z" />
    <glyph glyph-name="H" unicode="H" horiz-adv-x="763" 
d="M94 710h93v-303h389v303h93v-710h-93v320h-389v-320h-93v710z" />
    <glyph glyph-name="I" unicode="I" horiz-adv-x="281" 
d="M94 710h93v-710h-93v710z" />
    <glyph glyph-name="J" unicode="J" horiz-adv-x="529" 
d="M233 -12q-44 0 -82 13t-67 38.5t-45.5 63.5t-16.5 87h92q0 -29 9.5 -50.5t26 -36t38 -22t44.5 -7.5t44.5 7t37.5 22.5t25.5 41t9.5 61.5v504h92v-514q0 -56 -17 -95.5t-46 -64.5t-66.5 -36.5t-78.5 -11.5z" />
    <glyph glyph-name="K" unicode="K" horiz-adv-x="671" 
d="M186 338v-338h-92v710h92v-308l310 308h121l-338 -338l415 -372h-131z" />
    <glyph glyph-name="L" unicode="L" horiz-adv-x="548" 
d="M94 710h93v-622h343v-88h-436v710z" />
    <glyph glyph-name="M" unicode="M" horiz-adv-x="886" 
d="M179 710l263 -354l265 354h84v-710h-92v552l-256 -344l-256 344v-552h-93v710h85z" />
    <glyph glyph-name="N" unicode="N" horiz-adv-x="794" 
d="M619 0l-432 553v-553h-93v710h81l432 -553v553h92v-710h-80z" />
    <glyph glyph-name="O" unicode="O" horiz-adv-x="825" 
d="M412 76q58 0 108.5 21.5t87 59.5t57.5 88.5t21 109.5q0 58 -21 109t-57.5 89t-87 59.5t-108.5 21.5t-108 -21.5t-86.5 -59.5t-57.5 -89t-21 -109q0 -59 21 -109.5t57.5 -88.5t86.5 -59.5t108 -21.5zM412 -12q-77 0 -143.5 28.5t-116.5 78t-78.5 116.5t-28.5 144t28.5 144
t78.5 116.5t116.5 78t143.5 28.5t144 -28.5t116.5 -78t78 -116.5t28.5 -144t-28.5 -144t-78 -116.5t-116.5 -78t-144 -28.5z" />
    <glyph glyph-name="P" unicode="P" horiz-adv-x="586" 
d="M555 484q0 -48 -17.5 -89t-49 -71.5t-77 -47.5t-100.5 -17h-124v-259h-93v710h217q55 0 100.5 -17.5t77 -47.5t49 -71.5t17.5 -89.5zM463 484q0 30 -10 55t-29.5 44t-47.5 29.5t-65 10.5h-124v-278h124q37 0 65 10.5t47.5 29.5t29.5 44t10 55z" />
    <glyph glyph-name="Q" unicode="Q" horiz-adv-x="839" 
d="M412 -12q-77 0 -143.5 28.5t-116.5 78t-78.5 116.5t-28.5 144t28.5 144t78.5 116.5t116.5 78t143.5 28.5t144 -28.5t116.5 -78t78 -116.5t28.5 -144q0 -67 -21.5 -126t-59.5 -107l132 -122h-127l-68 62q-46 -35 -103 -54.5t-120 -19.5zM412 76q89 0 157 48l-113 105
l57 64l117 -109q26 35 41 78.5t15 92.5q0 58 -21 109t-57.5 89t-87 59.5t-108.5 21.5t-108 -21.5t-86.5 -59.5t-57.5 -89t-21 -109q0 -59 21 -109.5t57.5 -88.5t86.5 -59.5t108 -21.5z" />
    <glyph glyph-name="R" unicode="R" horiz-adv-x="635" 
d="M94 710h242q49 0 88.5 -14t67 -40t42 -62t14.5 -80q0 -78 -46.5 -128t-129.5 -62l274 -324h-117l-273 323h-69v-323h-93v710zM325 406q61 0 95.5 27t34.5 81t-34.5 82t-95.5 28h-138v-218h138z" />
    <glyph glyph-name="S" unicode="S" horiz-adv-x="562" 
d="M290 -12q-56 0 -101 16.5t-77 44t-50 64t-19 77.5h93q3 -30 18 -51.5t36.5 -35.5t47.5 -21t51 -7q28 0 52.5 7.5t42.5 21t28.5 33t10.5 44.5q0 82 -101 119l-98 36q-83 29 -123 77t-41 123q0 43 16.5 77.5t45 58.5t68 37t86.5 13q54 0 94.5 -17t68 -44t43 -61.5
t18.5 -69.5h-92q-14 56 -52 80.5t-82 24.5q-51 0 -86 -25.5t-35 -70.5t25 -70.5t77 -44.5l91 -33q81 -29 125.5 -78t44.5 -129q0 -45 -17 -81.5t-47 -62t-71.5 -39t-90.5 -13.5z" />
    <glyph glyph-name="T" unicode="T" horiz-adv-x="567" 
d="M238 622h-221v88h533v-88h-221v-622h-91v622z" />
    <glyph glyph-name="U" unicode="U" horiz-adv-x="726" 
d="M363 -12q-62 0 -113 20t-87.5 57.5t-57 91t-20.5 119.5v434h93v-436q0 -96 50.5 -147t134.5 -51t134.5 51t50.5 147v436h93v-434q0 -66 -20.5 -119.5t-57 -91t-88 -57.5t-112.5 -20z" />
    <glyph glyph-name="V" unicode="V" horiz-adv-x="701" 
d="M8 710h103l239 -565l240 565h101l-302 -710h-78z" />
    <glyph glyph-name="W" unicode="W" horiz-adv-x="947" 
d="M473 482l-173 -482h-83l-194 710h97l148 -554l205 566l205 -566l149 554h97l-194 -710h-83z" />
    <glyph glyph-name="X" unicode="X" horiz-adv-x="670" 
d="M4 0l274 359l-263 351h111l209 -277l209 277h111l-262 -351l273 -359h-113l-218 284l-217 -284h-114z" />
    <glyph glyph-name="Y" unicode="Y" horiz-adv-x="674" 
d="M291 301l-276 409h111l211 -316l212 316h111l-277 -410v-300h-92v301z" />
    <glyph glyph-name="Z" unicode="Z" horiz-adv-x="587" 
d="M34 62l385 560h-374v88h497v-62l-385 -560h395v-88h-518v62z" />
    <glyph glyph-name="bracketleft" unicode="[" horiz-adv-x="305" 
d="M92 800h187v-72h-109v-816h109v-72h-187v960z" />
    <glyph glyph-name="bracketright" unicode="]" horiz-adv-x="305" 
d="M213 -160h-187v72h109v816h-109v72h187v-960z" />
    <glyph glyph-name="underscore" unicode="_" horiz-adv-x="532" 
d="M54 0h424v-73h-424v73z" />
    <glyph glyph-name="grave" unicode="`" 
d="M-102 750h110l94 -190h-70z" />
    <glyph glyph-name="a" unicode="a" horiz-adv-x="630" 
d="M287 -10q-53 0 -97.5 20.5t-77.5 56t-51.5 82.5t-18.5 101t18.5 101t51.5 82.5t77.5 56t97.5 20.5q57 0 104 -25.5t72 -61.5v77h86v-500h-86v77q-25 -36 -72 -61.5t-104 -25.5zM300 69q38 0 69 14t53.5 38.5t35 57.5t12.5 71t-12.5 71t-35 57.5t-53.5 38.5t-69 14
t-69.5 -14t-54 -38.5t-35 -57.5t-12.5 -71t12.5 -71t35 -57.5t54 -38.5t69.5 -14z" />
    <glyph glyph-name="b" unicode="b" horiz-adv-x="630" 
d="M343 -10q-57 0 -104 25.5t-72 61.5v-77h-86v750h86v-327q25 36 72 61.5t104 25.5q52 0 97 -20.5t78 -56t51.5 -82.5t18.5 -101t-18.5 -101t-51.5 -82.5t-78 -56t-97 -20.5zM330 69q38 0 69 14t53.5 38.5t35 57.5t12.5 71t-12.5 71t-35 57.5t-53.5 38.5t-69 14t-69 -14
t-53.5 -38.5t-35 -57.5t-12.5 -71t12.5 -71t35 -57.5t53.5 -38.5t69 -14z" />
    <glyph glyph-name="c" unicode="c" horiz-adv-x="588" 
d="M303 -10q-57 0 -105 20.5t-82.5 56t-54 82.5t-19.5 101t19.5 101t54 82.5t82.5 56t105 20.5q47 0 88.5 -14t74.5 -38.5t55.5 -59t33.5 -74.5h-92q-17 48 -59 77.5t-101 29.5q-39 0 -71 -14t-55 -38.5t-35.5 -57.5t-12.5 -71t12.5 -71t35.5 -57.5t55 -38.5t71 -14
q59 0 101 29.5t59 77.5h92q-11 -41 -33.5 -75t-55.5 -58.5t-74.5 -38.5t-88.5 -14z" />
    <glyph glyph-name="d" unicode="d" horiz-adv-x="630" 
d="M287 -10q-53 0 -97.5 20.5t-77.5 56t-51.5 82.5t-18.5 101t18.5 101t51.5 82.5t77.5 56t97.5 20.5q57 0 104 -25.5t72 -61.5v327h86v-750h-86v77q-25 -36 -72 -61.5t-104 -25.5zM300 69q38 0 69 14t53.5 38.5t35 57.5t12.5 71t-12.5 71t-35 57.5t-53.5 38.5t-69 14
t-69.5 -14t-54 -38.5t-35 -57.5t-12.5 -71t12.5 -71t35 -57.5t54 -38.5t69.5 -14z" />
    <glyph glyph-name="e" unicode="e" horiz-adv-x="579" 
d="M294 -10q-55 0 -101 19.5t-79.5 54.5t-52.5 82.5t-19 103.5q0 55 17.5 102.5t50.5 82.5t80 55t106 20t105.5 -22.5t78 -61t46 -90t10.5 -109.5h-407q1 -34 14.5 -63t35.5 -50.5t52 -33.5t64 -12q47 0 84.5 19.5t60.5 64.5h88q-9 -33 -29 -62.5t-49.5 -51.5t-68.5 -35
t-87 -13zM293 434q-27 0 -53 -8t-47.5 -25t-37.5 -43t-22 -63h312q-12 70 -54 104.5t-98 34.5z" />
    <glyph glyph-name="f" unicode="f" horiz-adv-x="367" 
d="M123 421h-106v79h106v101q0 39 11.5 68t32 48.5t48.5 29t61 9.5q23 0 42 -3.5t36 -9.5v-76q-12 5 -29.5 7.5t-32.5 2.5q-42 0 -62.5 -18.5t-20.5 -66.5v-92h145v-79h-145v-421h-86v421z" />
    <glyph glyph-name="g" unicode="g" horiz-adv-x="628" 
d="M301 -219q-50 0 -92 13t-73.5 36t-51 54.5t-25.5 69.5h84q17 -50 58 -73.5t102 -23.5q34 0 63 11t50 33t33 54.5t12 74.5v59q-26 -38 -72 -63t-102 -25q-52 0 -97 19.5t-78 54t-51.5 81t-18.5 100.5q0 53 18.5 99.5t51.5 81t78 54t97 19.5q56 0 102 -24.5t72 -62.5v77h86
v-469q0 -63 -19.5 -109.5t-52.5 -78t-78 -47t-96 -15.5zM299 81q37 0 68.5 13t53.5 36.5t34.5 55.5t12.5 70q0 37 -12.5 69.5t-34.5 55.5t-53.5 36.5t-68.5 13.5q-38 0 -69 -13.5t-53 -36.5t-34.5 -55.5t-12.5 -69.5q0 -38 12.5 -70t34.5 -55.5t53 -36.5t69 -13z" />
    <glyph glyph-name="h" unicode="h" horiz-adv-x="589" 
d="M81 0v750h86v-327q26 45 68 66t91 21q42 0 77 -14t59.5 -40.5t38.5 -64t14 -83.5v-308h-85v295q0 63 -32.5 99.5t-85.5 36.5q-30 0 -56.5 -12t-46 -35.5t-31 -57.5t-11.5 -78v-248h-86z" />
    <glyph glyph-name="i" unicode="i" horiz-adv-x="249" 
d="M125 634q-26 0 -44 17.5t-18 43.5q0 25 18 43t44 18t43 -18t17 -43q0 -26 -17 -43.5t-43 -17.5zM81 500h86v-500h-86v500z" />
    <glyph glyph-name="j" unicode="j" horiz-adv-x="257" 
d="M175 -66q0 -39 -11.5 -68t-32 -47.5t-48 -28t-59.5 -9.5q-23 0 -41 3v77q6 -1 13 -1.5t16 -0.5q35 0 56 18.5t21 66.5v556h86v-566zM133 634q-26 0 -44 17.5t-18 43.5q0 25 18 43t44 18t43 -18t17 -43q0 -26 -17 -43.5t-43 -17.5z" />
    <glyph glyph-name="k" unicode="k" horiz-adv-x="539" 
d="M167 250v-250h-86v750h86v-445l218 195h114l-246 -221l301 -279h-116z" />
    <glyph glyph-name="l" unicode="l" horiz-adv-x="249" 
d="M81 750h86v-750h-86v750z" />
    <glyph glyph-name="m" unicode="m" horiz-adv-x="885" 
d="M725 294q0 61 -25 99t-74 38q-60 0 -97.5 -47t-39.5 -128v-256h-86v294q0 61 -24.5 99t-73.5 38q-61 0 -99.5 -49t-38.5 -134v-248h-86v500h86v-77q22 40 61 63.5t90 23.5q56 0 95.5 -28.5t58.5 -78.5q20 49 63.5 78t100.5 29q41 0 73.5 -14.5t55 -41t34.5 -64t12 -83.5
v-307h-86v294z" />
    <glyph glyph-name="n" unicode="n" horiz-adv-x="589" 
d="M81 500h86v-77q26 45 68 66t91 21q42 0 77 -14t59.5 -40.5t38.5 -64t14 -83.5v-308h-85v295q0 63 -32.5 99.5t-85.5 36.5q-30 0 -56.5 -12t-46 -35.5t-31 -57.5t-11.5 -78v-248h-86v500z" />
    <glyph glyph-name="o" unicode="o" horiz-adv-x="606" 
d="M303 -10q-57 0 -105 20.5t-83 55.5t-54.5 82.5t-19.5 101.5t19.5 101.5t54.5 82.5t83 55.5t105 20.5q56 0 104 -20.5t83 -55.5t54.5 -82.5t19.5 -101.5t-19.5 -101.5t-54.5 -82.5t-83 -55.5t-104 -20.5zM303 70q39 0 71 14t54.5 38.5t35 57t12.5 70.5q0 37 -12.5 70
t-35 57.5t-54.5 38.5t-71 14t-71 -14t-55 -38.5t-35.5 -57.5t-12.5 -70q0 -38 12.5 -70.5t35.5 -57t55 -38.5t71 -14z" />
    <glyph glyph-name="p" unicode="p" horiz-adv-x="631" 
d="M81 -209v709h86v-77q25 36 72 61.5t104 25.5q52 0 97 -20.5t78 -56t51.5 -82.5t18.5 -101t-18.5 -101t-51.5 -82.5t-78 -56t-97 -20.5q-57 0 -104 25.5t-72 61.5v-286h-86zM330 69q38 0 69 14t53.5 38.5t35 57.5t12.5 71t-12.5 71t-35 57.5t-53.5 38.5t-69 14t-69 -14
t-53.5 -38.5t-35 -57.5t-12.5 -71t12.5 -71t35 -57.5t53.5 -38.5t69 -14z" />
    <glyph glyph-name="q" unicode="q" horiz-adv-x="630" 
d="M463 -209v286q-25 -36 -72 -61.5t-104 -25.5q-53 0 -97.5 20.5t-77.5 56t-51.5 82.5t-18.5 101t18.5 101t51.5 82.5t77.5 56t97.5 20.5q57 0 104 -25.5t72 -61.5v77h86v-709h-86zM300 69q38 0 69 14t53.5 38.5t35 57.5t12.5 71t-12.5 71t-35 57.5t-53.5 38.5t-69 14
t-69.5 -14t-54 -38.5t-35 -57.5t-12.5 -71t12.5 -71t35 -57.5t54 -38.5t69.5 -14z" />
    <glyph glyph-name="r" unicode="r" horiz-adv-x="366" 
d="M81 500h86v-97q7 24 22 43t34 32t40.5 20t43.5 7q20 0 39 -4v-89q-12 5 -23 6.5t-24 1.5q-24 0 -47.5 -10.5t-42 -31.5t-30.5 -53.5t-12 -76.5v-248h-86v500z" />
    <glyph glyph-name="s" unicode="s" horiz-adv-x="467" 
d="M242 -10q-40 0 -76 10t-63 29.5t-44 48.5t-20 67h88q4 -23 15.5 -38.5t27.5 -25.5t34.5 -14t38.5 -4q41 0 68.5 16.5t27.5 49.5q0 30 -19 49t-64 31l-72 19q-65 17 -97 55t-32 92q0 31 13 56t36 42.5t54.5 27t69.5 9.5q40 0 72 -11t55.5 -30.5t37.5 -45.5t17 -56h-86
q-10 33 -35.5 52t-60.5 19q-36 0 -61 -16.5t-25 -45.5q0 -28 18 -44.5t58 -27.5l80 -21q63 -16 95.5 -53.5t32.5 -94.5q0 -37 -14 -64.5t-39 -45.5t-58.5 -26.5t-72.5 -8.5z" />
    <glyph glyph-name="t" unicode="t" horiz-adv-x="381" 
d="M275 -5q-33 0 -61 9.5t-48.5 28t-32 47.5t-11.5 68v273h-106v79h106v139h86v-139h144v-79h-144v-262q0 -48 21 -66.5t62 -18.5q16 0 32.5 2.5t28.5 7.5v-77q-16 -5 -35 -8.5t-42 -3.5z" />
    <glyph glyph-name="u" unicode="u" horiz-adv-x="579" 
d="M258 -10q-41 0 -75 14.5t-58 40.5t-37.5 63.5t-13.5 84.5v307h86v-294q0 -63 30.5 -100t82.5 -37q29 0 54.5 12.5t44 36t29.5 57.5t11 77v248h86v-500h-86v77q-25 -44 -65.5 -65.5t-88.5 -21.5z" />
    <glyph glyph-name="v" unicode="v" horiz-adv-x="546" 
d="M6 500h96l171 -379l171 379h96l-231 -500h-72z" />
    <glyph glyph-name="w" unicode="w" horiz-adv-x="763" 
d="M381 359l-123 -359h-76l-170 500h90l121 -365l125 365h66l125 -365l121 365h91l-170 -500h-76z" />
    <glyph glyph-name="x" unicode="x" horiz-adv-x="530" 
d="M265 189l-152 -189h-107l205 253l-188 247h104l138 -181l137 181h105l-189 -247l205 -253h-106z" />
    <glyph glyph-name="y" unicode="y" horiz-adv-x="547" 
d="M118 -209l109 235l-219 474h95l172 -380l171 380h96l-328 -709h-96z" />
    <glyph glyph-name="z" unicode="z" horiz-adv-x="484" 
d="M40 68l286 353h-282v79h393v-69l-286 -352h295v-79h-406v68z" />
    <glyph glyph-name="braceleft" unicode="{" horiz-adv-x="316" 
d="M230 -160q-71 0 -99 36.5t-28 106.5v230q0 34 -10.5 52.5t-47.5 18.5h-15v72h15q37 0 47.5 17.5t10.5 52.5v231q0 70 27.5 106.5t98.5 36.5h61v-72h-48q-38 0 -49.5 -17.5t-11.5 -55.5v-225q0 -47 -11.5 -71.5t-42.5 -38.5q31 -14 42.5 -39t11.5 -72v-224q0 -39 11.5 -56
t49.5 -17h48v-72h-60z" />
    <glyph glyph-name="bar" unicode="|" horiz-adv-x="262" 
d="M92 710h79v-820h-79v820z" />
    <glyph glyph-name="braceright" unicode="}" horiz-adv-x="316" 
d="M26 -160v72h48q38 0 49.5 17t11.5 56v224q0 47 11.5 72t42.5 39q-31 14 -42.5 38.5t-11.5 71.5v225q0 38 -11.5 55.5t-49.5 17.5h-48v72h61q71 0 98.5 -36.5t27.5 -106.5v-231q0 -35 10.5 -52.5t47.5 -17.5h15v-72h-15q-37 0 -47.5 -18.5t-10.5 -52.5v-230
q0 -70 -28 -106.5t-99 -36.5h-60z" />
    <glyph glyph-name="uni00A0" unicode="&#xa0;" horiz-adv-x="241" 
 />
    <glyph glyph-name="exclamdown" unicode="&#xa1;" horiz-adv-x="258" 
d="M172 76v-285h-86v285l16 204h54zM129 362q-31 0 -52.5 22t-21.5 53q0 30 21.5 52.5t52.5 22.5t52.5 -22.5t21.5 -52.5q0 -31 -21.5 -53t-52.5 -22z" />
    <glyph glyph-name="sterling" unicode="&#xa3;" horiz-adv-x="563" 
d="M51 391h62q-9 32 -15.5 64t-6.5 62q0 41 15 78.5t43 65.5t67 44.5t87 16.5t87 -17.5t67 -46.5t43.5 -68.5t16.5 -82.5h-86q-1 27 -10.5 51t-26 41.5t-40 28t-51.5 10.5t-51.5 -9.5t-40 -26t-25.5 -39t-9 -49.5q0 -30 7.5 -60.5t17.5 -62.5h191v-55h-173q10 -32 17 -63.5
t7 -64.5q0 -75 -37 -124h310v-84h-466v84h62q22 23 34.5 52.5t12.5 66.5q0 27 -9.5 61t-20.5 72h-79v55z" />
    <glyph glyph-name="yen" unicode="&#xa5;" horiz-adv-x="673" 
d="M86 354h174l-230 356h103l203 -324l203 324h104l-229 -356h173v-54h-207v-75h207v-54h-207v-171h-86v171h-208v54h208v75h-208v54z" />
    <glyph glyph-name="dieresis" unicode="&#xa8;" 
d="M-112 596q-25 0 -42 17t-17 41t17 41.5t42 17.5q24 0 41 -17.5t17 -41.5t-17 -41t-41 -17zM113 596q-24 0 -41.5 17t-17.5 41t17.5 41.5t41.5 17.5t41 -17.5t17 -41.5t-17 -41t-41 -17z" />
    <glyph glyph-name="copyright" unicode="&#xa9;" horiz-adv-x="824" 
d="M416 163q-42 0 -77.5 15t-62 40.5t-41 60.5t-14.5 76t14.5 76t41 61t62 41t77.5 15q33 0 62.5 -10t53 -27.5t40.5 -42t24 -53.5h-76q-12 30 -40.5 47.5t-63.5 17.5q-28 0 -50.5 -10t-39 -27t-25.5 -39.5t-9 -48.5q0 -53 34 -88.5t90 -35.5q35 0 63.5 17.5t40.5 46.5h76
q-7 -29 -24 -53t-40.5 -41.5t-53 -27.5t-62.5 -10zM411 59q61 0 115 23.5t94.5 63.5t64 94t23.5 115t-23.5 115t-64 94t-94.5 63.5t-115 23.5q-60 0 -114 -23.5t-94 -63.5t-63.5 -94t-23.5 -115t23.5 -115t63.5 -94t94 -63.5t114 -23.5zM411 -12q-75 0 -142 29t-116.5 79
t-78.5 116.5t-29 142.5t29 142.5t78.5 116.5t116.5 79t142 29q76 0 143 -29t117 -79t79 -116.5t29 -142.5t-29 -142.5t-79 -116.5t-117 -79t-143 -29z" />
    <glyph glyph-name="guillemotleft" unicode="&#xab;" horiz-adv-x="477" 
d="M357 467h73l-116 -217l116 -217h-73l-141 217zM184 467h73l-116 -217l116 -217h-73l-141 217z" />
    <glyph glyph-name="uni00AD" unicode="&#xad;" horiz-adv-x="386" 
d="M65 323h255v-86h-255v86z" />
    <glyph glyph-name="macron" unicode="&#xaf;" 
d="M-161 710h322v-69h-322v69z" />
    <glyph glyph-name="degree" unicode="&#xb0;" horiz-adv-x="347" 
d="M174 517q28 0 47.5 19.5t19.5 47.5t-19.5 48t-47.5 20q-29 0 -48.5 -20t-19.5 -48t19.5 -47.5t48.5 -19.5zM174 455q-27 0 -50.5 10t-41.5 27.5t-28 41t-10 50.5t10 50.5t28 41.5t41.5 28t50.5 10t50.5 -10t41 -28t27.5 -41.5t10 -50.5t-10 -50.5t-27.5 -41t-41 -27.5
t-50.5 -10z" />
    <glyph glyph-name="acute" unicode="&#xb4;" 
d="M-9 750h110l-134 -190h-69z" />
    <glyph glyph-name="periodcentered" unicode="&#xb7;" horiz-adv-x="270" 
d="M135 197q-31 0 -52.5 22t-21.5 53q0 30 21.5 52.5t52.5 22.5t52.5 -22.5t21.5 -52.5q0 -31 -21.5 -53t-52.5 -22z" />
    <glyph glyph-name="cedilla" unicode="&#xb8;" 
d="M-107 -149q16 -9 37 -13t39 -4q26 0 47 9.5t21 31.5q0 30 -47 30q-22 0 -44 -10l-33 21l53 87h54l-34 -56q17 7 40 7q35 0 58 -20t23 -56q0 -22 -10.5 -40t-28 -30.5t-41 -19.5t-50.5 -7q-19 0 -41.5 2.5t-42.5 12.5v55z" />
    <glyph glyph-name="guillemotright" unicode="&#xbb;" horiz-adv-x="477" 
d="M434 250l-141 -217h-73l116 217l-116 217h73zM261 250l-141 -217h-73l116 217l-116 217h73z" />
    <glyph glyph-name="questiondown" unicode="&#xbf;" horiz-adv-x="494" 
d="M308 246q0 -20 -8.5 -38.5t-22 -35.5t-29.5 -31t-31 -25q-21 -15 -38 -29t-29 -29t-19 -32.5t-7 -39.5q0 -26 9 -48t24.5 -38.5t37.5 -26t49 -9.5q59 0 97 36.5t38 96.5h86q0 -45 -16.5 -84.5t-46 -69t-70 -46.5t-88.5 -17q-47 0 -85 16.5t-65 45t-41.5 65t-14.5 77.5
q0 34 9.5 61t25 49t34 39t36.5 31q14 11 28 21.5t25.5 22t18.5 24t7 26.5v8h86v-20zM266 510q31 0 52.5 -22t21.5 -53q0 -30 -21.5 -52.5t-52.5 -22.5t-52.5 22.5t-21.5 52.5q0 31 21.5 53t52.5 22z" />
    <glyph glyph-name="Agrave" unicode="&#xc0;" horiz-adv-x="718" 
d="M320 710h77l315 -710h-97l-92 207h-331l-90 -207h-96zM229 291h257l-129 293zM320 770l-114 157h108l78 -157h-72z" />
    <glyph glyph-name="Aacute" unicode="&#xc1;" horiz-adv-x="718" 
d="M320 710h77l315 -710h-97l-92 207h-331l-90 -207h-96zM229 291h257l-129 293zM409 927h108l-114 -157h-72z" />
    <glyph glyph-name="Acircumflex" unicode="&#xc2;" horiz-adv-x="718" 
d="M320 710h77l315 -710h-97l-92 207h-331l-90 -207h-96zM229 291h257l-129 293zM192 845l166 87l166 -87v-77l-166 87l-166 -87v77z" />
    <glyph glyph-name="Atilde" unicode="&#xc3;" horiz-adv-x="718" 
d="M320 710h77l315 -710h-97l-92 207h-331l-90 -207h-96zM229 291h257l-129 293zM188 804q8 43 37 69t69 26q19 0 37.5 -7t34.5 -15t30.5 -15t26.5 -7q33 0 43 44h66l-4 -19q-8 -42 -36.5 -68t-69.5 -26q-20 0 -38 7t-34 15l-30 15t-26 7q-32 0 -44 -44h-65z" />
    <glyph glyph-name="Adieresis" unicode="&#xc4;" horiz-adv-x="718" 
d="M320 710h77l315 -710h-97l-92 207h-331l-90 -207h-96zM229 291h257l-129 293zM246 785q-25 0 -42 17t-17 41t17 41.5t42 17.5q24 0 41 -17.5t17 -41.5t-17 -41t-41 -17zM471 785q-24 0 -41.5 17t-17.5 41t17.5 41.5t41.5 17.5t41 -17.5t17 -41.5t-17 -41t-41 -17z" />
    <glyph glyph-name="Aring" unicode="&#xc5;" horiz-adv-x="718" 
d="M320 710h77l315 -710h-97l-92 207h-331l-90 -207h-96zM229 291h257l-129 293zM358 753q-25 0 -47 9.5t-38.5 26t-26 38t-9.5 46.5t9.5 46.5t26 38t38.5 26t47 9.5t47 -9.5t38.5 -26t26.5 -38t10 -46.5t-10 -46.5t-26.5 -38t-38.5 -26t-47 -9.5zM358 804q29 0 50 20t21 49
t-21 49.5t-50 20.5t-49 -20.5t-20 -49.5t20 -49t49 -20z" />
    <glyph glyph-name="AE" unicode="&#xc6;" horiz-adv-x="914" 
d="M451 207h-248l-123 -207h-103l425 710h463v-88h-321v-215h261v-88h-261v-231h321v-88h-414v207zM253 291h198v331h-1z" />
    <glyph glyph-name="Ccedilla" unicode="&#xc7;" horiz-adv-x="788" 
d="M414 -12q-78 0 -145.5 28t-117 77.5t-77.5 116.5t-28 145t28 145t77.5 116.5t117 77.5t145.5 28q67 0 124 -20.5t101.5 -54.5t73.5 -78.5t41 -92.5h-98q-12 33 -34.5 62t-54 50.5t-70.5 33.5t-83 12q-59 0 -109.5 -21.5t-87.5 -59t-57.5 -88.5t-20.5 -110t20.5 -110
t57.5 -88.5t87.5 -59t109.5 -21.5q44 0 83 12t70.5 33.5t54 50.5t34.5 62h98q-12 -48 -41 -92.5t-73.5 -78.5t-101.5 -54.5t-124 -20.5zM306 -149q16 -9 37 -13t39 -4q27 0 47.5 9.5t20.5 31.5q0 30 -46 30q-22 0 -45 -10l-32 21l52 87h55l-34 -56q17 7 40 7q35 0 57.5 -20
t22.5 -56q0 -22 -10 -40t-27.5 -30.5t-41 -19.5t-50.5 -7q-20 0 -42 2.5t-43 12.5v55z" />
    <glyph glyph-name="Egrave" unicode="&#xc8;" horiz-adv-x="557" 
d="M94 710h414v-88h-321v-215h261v-88h-261v-231h321v-88h-414v710zM262 770l-114 157h108l78 -157h-72z" />
    <glyph glyph-name="Eacute" unicode="&#xc9;" horiz-adv-x="557" 
d="M94 710h414v-88h-321v-215h261v-88h-261v-231h321v-88h-414v710zM351 927h108l-114 -157h-72z" />
    <glyph glyph-name="Ecircumflex" unicode="&#xca;" horiz-adv-x="557" 
d="M94 710h414v-88h-321v-215h261v-88h-261v-231h321v-88h-414v710zM135 845l166 87l166 -87v-77l-166 87l-166 -87v77z" />
    <glyph glyph-name="Edieresis" unicode="&#xcb;" horiz-adv-x="557" 
d="M94 710h414v-88h-321v-215h261v-88h-261v-231h321v-88h-414v710zM189 785q-25 0 -42 17t-17 41t17 41.5t42 17.5q24 0 41 -17.5t17 -41.5t-17 -41t-41 -17zM414 785q-24 0 -41.5 17t-17.5 41t17.5 41.5t41.5 17.5t41 -17.5t17 -41.5t-17 -41t-41 -17z" />
    <glyph glyph-name="Igrave" unicode="&#xcc;" horiz-adv-x="281" 
d="M94 710h93v-710h-93v710zM102 770l-114 157h108l78 -157h-72z" />
    <glyph glyph-name="Iacute" unicode="&#xcd;" horiz-adv-x="281" 
d="M94 710h93v-710h-93v710zM191 927h108l-114 -157h-72z" />
    <glyph glyph-name="Icircumflex" unicode="&#xce;" horiz-adv-x="281" 
d="M94 710h93v-710h-93v710zM-25 845l166 87l166 -87v-77l-166 87l-166 -87v77z" />
    <glyph glyph-name="Idieresis" unicode="&#xcf;" horiz-adv-x="281" 
d="M94 710h93v-710h-93v710zM29 785q-25 0 -42 17t-17 41t17 41.5t42 17.5q24 0 41 -17.5t17 -41.5t-17 -41t-41 -17zM254 785q-24 0 -41.5 17t-17.5 41t17.5 41.5t41.5 17.5t41 -17.5t17 -41.5t-17 -41t-41 -17z" />
    <glyph glyph-name="Eth" unicode="&#xd0;" horiz-adv-x="729" 
d="M101 710h204q82 0 151 -27t119.5 -74.5t79 -112.5t28.5 -141t-28.5 -141t-79 -112.5t-119.5 -74.5t-151 -27h-204v710zM305 87q64 0 116.5 20t89.5 56t57.5 85t20.5 107t-20.5 107t-57.5 85t-89.5 56t-116.5 20h-111v-536h111zM28 401h326v-82h-326v82z" />
    <glyph glyph-name="Ntilde" unicode="&#xd1;" horiz-adv-x="794" 
d="M619 0l-432 553v-553h-93v710h81l432 -553v553h92v-710h-80zM223 804q8 43 37 69t69 26q19 0 37.5 -7t34.5 -15t30.5 -15t26.5 -7q33 0 43 44h66l-4 -19q-8 -42 -36.5 -68t-69.5 -26q-20 0 -38 7t-34 15l-30 15t-26 7q-32 0 -44 -44h-65z" />
    <glyph glyph-name="Ograve" unicode="&#xd2;" horiz-adv-x="825" 
d="M412 76q58 0 108.5 21.5t87 59.5t57.5 88.5t21 109.5q0 58 -21 109t-57.5 89t-87 59.5t-108.5 21.5t-108 -21.5t-86.5 -59.5t-57.5 -89t-21 -109q0 -59 21 -109.5t57.5 -88.5t86.5 -59.5t108 -21.5zM412 -12q-77 0 -143.5 28.5t-116.5 78t-78.5 116.5t-28.5 144t28.5 144
t78.5 116.5t116.5 78t143.5 28.5t144 -28.5t116.5 -78t78 -116.5t28.5 -144t-28.5 -144t-78 -116.5t-116.5 -78t-144 -28.5zM374 770l-114 157h108l78 -157h-72z" />
    <glyph glyph-name="Oacute" unicode="&#xd3;" horiz-adv-x="825" 
d="M412 76q58 0 108.5 21.5t87 59.5t57.5 88.5t21 109.5q0 58 -21 109t-57.5 89t-87 59.5t-108.5 21.5t-108 -21.5t-86.5 -59.5t-57.5 -89t-21 -109q0 -59 21 -109.5t57.5 -88.5t86.5 -59.5t108 -21.5zM412 -12q-77 0 -143.5 28.5t-116.5 78t-78.5 116.5t-28.5 144t28.5 144
t78.5 116.5t116.5 78t143.5 28.5t144 -28.5t116.5 -78t78 -116.5t28.5 -144t-28.5 -144t-78 -116.5t-116.5 -78t-144 -28.5zM463 927h108l-114 -157h-72z" />
    <glyph glyph-name="Ocircumflex" unicode="&#xd4;" horiz-adv-x="825" 
d="M412 76q58 0 108.5 21.5t87 59.5t57.5 88.5t21 109.5q0 58 -21 109t-57.5 89t-87 59.5t-108.5 21.5t-108 -21.5t-86.5 -59.5t-57.5 -89t-21 -109q0 -59 21 -109.5t57.5 -88.5t86.5 -59.5t108 -21.5zM412 -12q-77 0 -143.5 28.5t-116.5 78t-78.5 116.5t-28.5 144t28.5 144
t78.5 116.5t116.5 78t143.5 28.5t144 -28.5t116.5 -78t78 -116.5t28.5 -144t-28.5 -144t-78 -116.5t-116.5 -78t-144 -28.5zM246 845l166 87l166 -87v-77l-166 87l-166 -87v77z" />
    <glyph glyph-name="Otilde" unicode="&#xd5;" horiz-adv-x="825" 
d="M412 76q58 0 108.5 21.5t87 59.5t57.5 88.5t21 109.5q0 58 -21 109t-57.5 89t-87 59.5t-108.5 21.5t-108 -21.5t-86.5 -59.5t-57.5 -89t-21 -109q0 -59 21 -109.5t57.5 -88.5t86.5 -59.5t108 -21.5zM412 -12q-77 0 -143.5 28.5t-116.5 78t-78.5 116.5t-28.5 144t28.5 144
t78.5 116.5t116.5 78t143.5 28.5t144 -28.5t116.5 -78t78 -116.5t28.5 -144t-28.5 -144t-78 -116.5t-116.5 -78t-144 -28.5zM242 804q8 43 37 69t69 26q19 0 37.5 -7t34.5 -15t30.5 -15t26.5 -7q33 0 43 44h66l-4 -19q-8 -42 -36.5 -68t-69.5 -26q-20 0 -38 7t-34 15l-30 15
t-26 7q-32 0 -44 -44h-65z" />
    <glyph glyph-name="Odieresis" unicode="&#xd6;" horiz-adv-x="825" 
d="M412 76q58 0 108.5 21.5t87 59.5t57.5 88.5t21 109.5q0 58 -21 109t-57.5 89t-87 59.5t-108.5 21.5t-108 -21.5t-86.5 -59.5t-57.5 -89t-21 -109q0 -59 21 -109.5t57.5 -88.5t86.5 -59.5t108 -21.5zM412 -12q-77 0 -143.5 28.5t-116.5 78t-78.5 116.5t-28.5 144t28.5 144
t78.5 116.5t116.5 78t143.5 28.5t144 -28.5t116.5 -78t78 -116.5t28.5 -144t-28.5 -144t-78 -116.5t-116.5 -78t-144 -28.5zM300 785q-25 0 -42 17t-17 41t17 41.5t42 17.5q24 0 41 -17.5t17 -41.5t-17 -41t-41 -17zM525 785q-24 0 -41.5 17t-17.5 41t17.5 41.5t41.5 17.5
t41 -17.5t17 -41.5t-17 -41t-41 -17z" />
    <glyph glyph-name="multiply" unicode="&#xd7;" horiz-adv-x="503" 
d="M53 149l143 141l-143 140l56 56l143 -140l142 140l56 -56l-143 -140l143 -141l-56 -55l-142 140l-143 -140z" />
    <glyph glyph-name="Oslash" unicode="&#xd8;" horiz-adv-x="826" 
d="M413 76q58 0 108.5 21.5t87 59.5t57.5 88.5t21 109.5q0 58 -21 109t-57.5 89t-87 59.5t-108.5 21.5t-108 -21.5t-86.5 -59.5t-57.5 -89t-21 -109q0 -59 21 -109.5t57.5 -88.5t86.5 -59.5t108 -21.5zM413 -12q-77 0 -143.5 28.5t-116.5 78t-78.5 116.5t-28.5 144t28.5 144
t78.5 116.5t116.5 78t143.5 28.5t144 -28.5t116.5 -78t78 -116.5t28.5 -144t-28.5 -144t-78 -116.5t-116.5 -78t-144 -28.5zM130 -20l-56 52l623 698l55 -51z" />
    <glyph glyph-name="Ugrave" unicode="&#xd9;" horiz-adv-x="726" 
d="M363 -12q-62 0 -113 20t-87.5 57.5t-57 91t-20.5 119.5v434h93v-436q0 -96 50.5 -147t134.5 -51t134.5 51t50.5 147v436h93v-434q0 -66 -20.5 -119.5t-57 -91t-88 -57.5t-112.5 -20zM324 770l-114 157h108l78 -157h-72z" />
    <glyph glyph-name="Uacute" unicode="&#xda;" horiz-adv-x="726" 
d="M363 -12q-62 0 -113 20t-87.5 57.5t-57 91t-20.5 119.5v434h93v-436q0 -96 50.5 -147t134.5 -51t134.5 51t50.5 147v436h93v-434q0 -66 -20.5 -119.5t-57 -91t-88 -57.5t-112.5 -20zM413 927h108l-114 -157h-72z" />
    <glyph glyph-name="Ucircumflex" unicode="&#xdb;" horiz-adv-x="726" 
d="M363 -12q-62 0 -113 20t-87.5 57.5t-57 91t-20.5 119.5v434h93v-436q0 -96 50.5 -147t134.5 -51t134.5 51t50.5 147v436h93v-434q0 -66 -20.5 -119.5t-57 -91t-88 -57.5t-112.5 -20zM197 845l166 87l166 -87v-77l-166 87l-166 -87v77z" />
    <glyph glyph-name="Udieresis" unicode="&#xdc;" horiz-adv-x="726" 
d="M363 -12q-62 0 -113 20t-87.5 57.5t-57 91t-20.5 119.5v434h93v-436q0 -96 50.5 -147t134.5 -51t134.5 51t50.5 147v436h93v-434q0 -66 -20.5 -119.5t-57 -91t-88 -57.5t-112.5 -20zM251 785q-25 0 -42 17t-17 41t17 41.5t42 17.5q24 0 41 -17.5t17 -41.5t-17 -41
t-41 -17zM476 785q-24 0 -41.5 17t-17.5 41t17.5 41.5t41.5 17.5t41 -17.5t17 -41.5t-17 -41t-41 -17z" />
    <glyph glyph-name="Yacute" unicode="&#xdd;" horiz-adv-x="674" 
d="M291 301l-276 409h111l211 -316l212 316h111l-277 -410v-300h-92v301zM387 927h108l-114 -157h-72z" />
    <glyph glyph-name="Thorn" unicode="&#xde;" horiz-adv-x="595" 
d="M555 355q0 -48 -17.5 -89t-49 -71t-77 -47.5t-100.5 -17.5h-124v-130h-93v710h93v-129h124q55 0 100.5 -17.5t77 -47.5t49 -71.5t17.5 -89.5zM463 355q0 30 -10 55.5t-29.5 44t-47.5 29.5t-65 11h-124v-279h124q37 0 65 10.5t47.5 29.5t29.5 44.5t10 54.5z" />
    <glyph glyph-name="germandbls" unicode="&#xdf;" horiz-adv-x="573" 
d="M81 547q0 47 16 85.5t44 66t65.5 42.5t79.5 15t79.5 -15t65 -41t44 -61t16.5 -75q0 -49 -23 -91t-65 -68q31 -13 55.5 -33.5t40.5 -45.5t24.5 -53t8.5 -56q0 -43 -16 -82.5t-46 -69.5t-72.5 -47.5t-95.5 -17.5h-51v81h47q32 0 59 10t47 28.5t31 44t11 55.5t-11 55
t-31 43.5t-47 29t-59 10.5h-45v81h26q28 0 51 9.5t39.5 25.5t26 37.5t9.5 45.5q0 25 -9 46.5t-25 37.5t-37.5 25.5t-46.5 9.5q-26 0 -47.5 -9.5t-38 -26.5t-25.5 -41t-9 -52v-546h-86v547z" />
    <glyph glyph-name="agrave" unicode="&#xe0;" horiz-adv-x="630" 
d="M287 -10q-53 0 -97.5 20.5t-77.5 56t-51.5 82.5t-18.5 101t18.5 101t51.5 82.5t77.5 56t97.5 20.5q57 0 104 -25.5t72 -61.5v77h86v-500h-86v77q-25 -36 -72 -61.5t-104 -25.5zM300 69q38 0 69 14t53.5 38.5t35 57.5t12.5 71t-12.5 71t-35 57.5t-53.5 38.5t-69 14
t-69.5 -14t-54 -38.5t-35 -57.5t-12.5 -71t12.5 -71t35 -57.5t54 -38.5t69.5 -14zM148 750h110l94 -190h-70z" />
    <glyph glyph-name="aacute" unicode="&#xe1;" horiz-adv-x="630" 
d="M287 -10q-53 0 -97.5 20.5t-77.5 56t-51.5 82.5t-18.5 101t18.5 101t51.5 82.5t77.5 56t97.5 20.5q57 0 104 -25.5t72 -61.5v77h86v-500h-86v77q-25 -36 -72 -61.5t-104 -25.5zM300 69q38 0 69 14t53.5 38.5t35 57.5t12.5 71t-12.5 71t-35 57.5t-53.5 38.5t-69 14
t-69.5 -14t-54 -38.5t-35 -57.5t-12.5 -71t12.5 -71t35 -57.5t54 -38.5t69.5 -14zM383 750h110l-134 -190h-69z" />
    <glyph glyph-name="acircumflex" unicode="&#xe2;" horiz-adv-x="630" 
d="M287 -10q-53 0 -97.5 20.5t-77.5 56t-51.5 82.5t-18.5 101t18.5 101t51.5 82.5t77.5 56t97.5 20.5q57 0 104 -25.5t72 -61.5v77h86v-500h-86v77q-25 -36 -72 -61.5t-104 -25.5zM300 69q38 0 69 14t53.5 38.5t35 57.5t12.5 71t-12.5 71t-35 57.5t-53.5 38.5t-69 14
t-69.5 -14t-54 -38.5t-35 -57.5t-12.5 -71t12.5 -71t35 -57.5t54 -38.5t69.5 -14zM479 655v-79l-159 101l-159 -101v79l159 101z" />
    <glyph glyph-name="atilde" unicode="&#xe3;" horiz-adv-x="630" 
d="M287 -10q-53 0 -97.5 20.5t-77.5 56t-51.5 82.5t-18.5 101t18.5 101t51.5 82.5t77.5 56t97.5 20.5q57 0 104 -25.5t72 -61.5v77h86v-500h-86v77q-25 -36 -72 -61.5t-104 -25.5zM300 69q38 0 69 14t53.5 38.5t35 57.5t12.5 71t-12.5 71t-35 57.5t-53.5 38.5t-69 14
t-69.5 -14t-54 -38.5t-35 -57.5t-12.5 -71t12.5 -71t35 -57.5t54 -38.5t69.5 -14zM149 611q8 43 37 69t69 26q20 0 38 -7t34.5 -15t30.5 -15t26 -7q33 0 43 44h66l-3 -18q-8 -43 -37 -69t-69 -26q-20 0 -38 7t-34.5 15t-30.5 15t-26 7q-33 0 -43 -44h-66z" />
    <glyph glyph-name="adieresis" unicode="&#xe4;" horiz-adv-x="630" 
d="M287 -10q-53 0 -97.5 20.5t-77.5 56t-51.5 82.5t-18.5 101t18.5 101t51.5 82.5t77.5 56t97.5 20.5q57 0 104 -25.5t72 -61.5v77h86v-500h-86v77q-25 -36 -72 -61.5t-104 -25.5zM300 69q38 0 69 14t53.5 38.5t35 57.5t12.5 71t-12.5 71t-35 57.5t-53.5 38.5t-69 14
t-69.5 -14t-54 -38.5t-35 -57.5t-12.5 -71t12.5 -71t35 -57.5t54 -38.5t69.5 -14zM208 596q-25 0 -42 17t-17 41t17 41.5t42 17.5q24 0 41 -17.5t17 -41.5t-17 -41t-41 -17zM433 596q-24 0 -41.5 17t-17.5 41t17.5 41.5t41.5 17.5t41 -17.5t17 -41.5t-17 -41t-41 -17z" />
    <glyph glyph-name="aring" unicode="&#xe5;" horiz-adv-x="630" 
d="M287 -10q-53 0 -97.5 20.5t-77.5 56t-51.5 82.5t-18.5 101t18.5 101t51.5 82.5t77.5 56t97.5 20.5q57 0 104 -25.5t72 -61.5v77h86v-500h-86v77q-25 -36 -72 -61.5t-104 -25.5zM300 69q38 0 69 14t53.5 38.5t35 57.5t12.5 71t-12.5 71t-35 57.5t-53.5 38.5t-69 14
t-69.5 -14t-54 -38.5t-35 -57.5t-12.5 -71t12.5 -71t35 -57.5t54 -38.5t69.5 -14zM320 543q-25 0 -47 9.5t-38.5 26t-26 38t-9.5 46.5t9.5 46.5t26 38t38.5 26t47 9.5t47 -9.5t38.5 -26t26.5 -38t10 -46.5t-10 -46.5t-26.5 -38t-38.5 -26t-47 -9.5zM320 594q29 0 50 20
t21 49t-21 49.5t-50 20.5t-49 -20.5t-20 -49.5t20 -49t49 -20z" />
    <glyph glyph-name="ae" unicode="&#xe6;" horiz-adv-x="900" 
d="M617 -10q-25 0 -52 5t-53 16t-51 30t-46 46q-29 -51 -79.5 -74t-114.5 -23q-45 0 -78.5 12.5t-56 33t-34 46.5t-11.5 53q0 37 15 62.5t43 44t68 31t89 22.5q30 6 51 11t35 11t20.5 15.5t6.5 24.5q0 33 -25.5 55t-77.5 22q-55 0 -89.5 -25.5t-36.5 -73.5h-87q0 36 16 68
t43.5 55.5t66.5 37.5t86 14q57 0 100 -20.5t66 -66.5q31 41 80.5 64t107.5 23t104 -22.5t77.5 -61t46 -90t10.5 -109.5h-406q1 -34 14 -63t35.5 -50.5t52 -33.5t64.5 -12q46 0 83.5 19.5t60.5 64.5h89q-9 -33 -29 -62.5t-50 -51.5t-68.5 -35t-85.5 -13zM614 434
q-27 0 -53 -8t-47.5 -25t-37.5 -43t-22 -63h312q-12 70 -54 104.5t-98 34.5zM372 263q-11 -6 -28.5 -12t-36.5 -12t-38 -11t-32 -9q-29 -8 -48.5 -15.5t-31.5 -17t-17 -21.5t-5 -27q0 -36 27.5 -55t70.5 -19q61 0 100 30t39 95v74z" />
    <glyph glyph-name="ccedilla" unicode="&#xe7;" horiz-adv-x="588" 
d="M303 -10q-57 0 -105 20.5t-82.5 56t-54 82.5t-19.5 101t19.5 101t54 82.5t82.5 56t105 20.5q47 0 88.5 -14t74.5 -38.5t55.5 -59t33.5 -74.5h-92q-17 48 -59 77.5t-101 29.5q-39 0 -71 -14t-55 -38.5t-35.5 -57.5t-12.5 -71t12.5 -71t35.5 -57.5t55 -38.5t71 -14
q59 0 101 29.5t59 77.5h92q-11 -41 -33.5 -75t-55.5 -58.5t-74.5 -38.5t-88.5 -14zM198 -149q16 -9 37 -13t39 -4q26 0 47 9.5t21 31.5q0 30 -47 30q-22 0 -44 -10l-33 21l53 87h54l-34 -56q17 7 40 7q35 0 58 -20t23 -56q0 -22 -10.5 -40t-28 -30.5t-41 -19.5t-50.5 -7
q-19 0 -41.5 2.5t-42.5 12.5v55z" />
    <glyph glyph-name="egrave" unicode="&#xe8;" horiz-adv-x="579" 
d="M294 -10q-55 0 -101 19.5t-79.5 54.5t-52.5 82.5t-19 103.5q0 55 17.5 102.5t50.5 82.5t80 55t106 20t105.5 -22.5t78 -61t46 -90t10.5 -109.5h-407q1 -34 14.5 -63t35.5 -50.5t52 -33.5t64 -12q47 0 84.5 19.5t60.5 64.5h88q-9 -33 -29 -62.5t-49.5 -51.5t-68.5 -35
t-87 -13zM293 434q-27 0 -53 -8t-47.5 -25t-37.5 -43t-22 -63h312q-12 70 -54 104.5t-98 34.5zM124 750h110l94 -190h-70z" />
    <glyph glyph-name="eacute" unicode="&#xe9;" horiz-adv-x="579" 
d="M294 -10q-55 0 -101 19.5t-79.5 54.5t-52.5 82.5t-19 103.5q0 55 17.5 102.5t50.5 82.5t80 55t106 20t105.5 -22.5t78 -61t46 -90t10.5 -109.5h-407q1 -34 14.5 -63t35.5 -50.5t52 -33.5t64 -12q47 0 84.5 19.5t60.5 64.5h88q-9 -33 -29 -62.5t-49.5 -51.5t-68.5 -35
t-87 -13zM293 434q-27 0 -53 -8t-47.5 -25t-37.5 -43t-22 -63h312q-12 70 -54 104.5t-98 34.5zM358 750h110l-134 -190h-69z" />
    <glyph glyph-name="ecircumflex" unicode="&#xea;" horiz-adv-x="579" 
d="M294 -10q-55 0 -101 19.5t-79.5 54.5t-52.5 82.5t-19 103.5q0 55 17.5 102.5t50.5 82.5t80 55t106 20t105.5 -22.5t78 -61t46 -90t10.5 -109.5h-407q1 -34 14.5 -63t35.5 -50.5t52 -33.5t64 -12q47 0 84.5 19.5t60.5 64.5h88q-9 -33 -29 -62.5t-49.5 -51.5t-68.5 -35
t-87 -13zM293 434q-27 0 -53 -8t-47.5 -25t-37.5 -43t-22 -63h312q-12 70 -54 104.5t-98 34.5zM455 655v-79l-159 101l-159 -101v79l159 101z" />
    <glyph glyph-name="edieresis" unicode="&#xeb;" horiz-adv-x="579" 
d="M294 -10q-55 0 -101 19.5t-79.5 54.5t-52.5 82.5t-19 103.5q0 55 17.5 102.5t50.5 82.5t80 55t106 20t105.5 -22.5t78 -61t46 -90t10.5 -109.5h-407q1 -34 14.5 -63t35.5 -50.5t52 -33.5t64 -12q47 0 84.5 19.5t60.5 64.5h88q-9 -33 -29 -62.5t-49.5 -51.5t-68.5 -35
t-87 -13zM293 434q-27 0 -53 -8t-47.5 -25t-37.5 -43t-22 -63h312q-12 70 -54 104.5t-98 34.5zM184 596q-25 0 -42 17t-17 41t17 41.5t42 17.5q24 0 41 -17.5t17 -41.5t-17 -41t-41 -17zM409 596q-24 0 -41.5 17t-17.5 41t17.5 41.5t41.5 17.5t41 -17.5t17 -41.5t-17 -41
t-41 -17z" />
    <glyph glyph-name="igrave" unicode="&#xec;" horiz-adv-x="249" 
d="M81 500h86v-500h-86v500zM-48 750h110l94 -190h-70z" />
    <glyph glyph-name="iacute" unicode="&#xed;" horiz-adv-x="249" 
d="M81 500h86v-500h-86v500zM187 750h110l-134 -190h-69z" />
    <glyph glyph-name="icircumflex" unicode="&#xee;" horiz-adv-x="249" 
d="M81 500h86v-500h-86v500zM283 655v-79l-159 101l-159 -101v79l159 101z" />
    <glyph glyph-name="idieresis" unicode="&#xef;" horiz-adv-x="249" 
d="M81 500h86v-500h-86v500zM26 596q-26 0 -43.5 17.5t-17.5 43.5q0 25 17.5 42.5t43.5 17.5q25 0 43 -17.5t18 -42.5q0 -26 -18 -43.5t-43 -17.5zM222 596q-26 0 -43.5 17.5t-17.5 43.5q0 25 17.5 42.5t43.5 17.5q25 0 43 -17.5t18 -42.5q0 -26 -18 -43.5t-43 -17.5z" />
    <glyph glyph-name="eth" unicode="&#xf0;" horiz-adv-x="606" 
d="M400 574l111 -164q23 -35 38.5 -74.5t15.5 -85.5q0 -54 -19.5 -101t-54.5 -82.5t-83 -56t-105 -20.5q-56 0 -104 20.5t-83 56t-54.5 82.5t-19.5 101q0 55 20.5 102.5t55.5 82.5t82 54.5t100 19.5q21 0 53 -6l-47 71h-143v68h97l-73 108h94l73 -108h124v-68h-78zM303 70
q39 0 71 14t55 38.5t35.5 57t12.5 70.5q0 37 -12.5 70t-35.5 57.5t-55 38.5t-71 14t-71 -14t-55 -38.5t-35.5 -57.5t-12.5 -70q0 -38 12.5 -70.5t35.5 -57t55 -38.5t71 -14z" />
    <glyph glyph-name="ntilde" unicode="&#xf1;" horiz-adv-x="589" 
d="M81 500h86v-77q26 45 68 66t91 21q42 0 77 -14t59.5 -40.5t38.5 -64t14 -83.5v-308h-85v295q0 63 -32.5 99.5t-85.5 36.5q-30 0 -56.5 -12t-46 -35.5t-31 -57.5t-11.5 -78v-248h-86v500zM127 611q8 43 37 69t69 26q20 0 38 -7t34.5 -15t30.5 -15t26 -7q33 0 43 44h66
l-3 -18q-8 -43 -37 -69t-69 -26q-20 0 -38 7t-34.5 15t-30.5 15t-26 7q-33 0 -43 -44h-66z" />
    <glyph glyph-name="ograve" unicode="&#xf2;" horiz-adv-x="606" 
d="M303 -10q-57 0 -105 20.5t-83 55.5t-54.5 82.5t-19.5 101.5t19.5 101.5t54.5 82.5t83 55.5t105 20.5q56 0 104 -20.5t83 -55.5t54.5 -82.5t19.5 -101.5t-19.5 -101.5t-54.5 -82.5t-83 -55.5t-104 -20.5zM303 70q39 0 71 14t54.5 38.5t35 57t12.5 70.5q0 37 -12.5 70
t-35 57.5t-54.5 38.5t-71 14t-71 -14t-55 -38.5t-35.5 -57.5t-12.5 -70q0 -38 12.5 -70.5t35.5 -57t55 -38.5t71 -14zM131 750h110l94 -190h-70z" />
    <glyph glyph-name="oacute" unicode="&#xf3;" horiz-adv-x="606" 
d="M303 -10q-57 0 -105 20.5t-83 55.5t-54.5 82.5t-19.5 101.5t19.5 101.5t54.5 82.5t83 55.5t105 20.5q56 0 104 -20.5t83 -55.5t54.5 -82.5t19.5 -101.5t-19.5 -101.5t-54.5 -82.5t-83 -55.5t-104 -20.5zM303 70q39 0 71 14t54.5 38.5t35 57t12.5 70.5q0 37 -12.5 70
t-35 57.5t-54.5 38.5t-71 14t-71 -14t-55 -38.5t-35.5 -57.5t-12.5 -70q0 -38 12.5 -70.5t35.5 -57t55 -38.5t71 -14zM366 750h110l-134 -190h-69z" />
    <glyph glyph-name="ocircumflex" unicode="&#xf4;" horiz-adv-x="606" 
d="M303 -10q-57 0 -105 20.5t-83 55.5t-54.5 82.5t-19.5 101.5t19.5 101.5t54.5 82.5t83 55.5t105 20.5q56 0 104 -20.5t83 -55.5t54.5 -82.5t19.5 -101.5t-19.5 -101.5t-54.5 -82.5t-83 -55.5t-104 -20.5zM303 70q39 0 71 14t54.5 38.5t35 57t12.5 70.5q0 37 -12.5 70
t-35 57.5t-54.5 38.5t-71 14t-71 -14t-55 -38.5t-35.5 -57.5t-12.5 -70q0 -38 12.5 -70.5t35.5 -57t55 -38.5t71 -14zM462 655v-79l-159 101l-159 -101v79l159 101z" />
    <glyph glyph-name="otilde" unicode="&#xf5;" horiz-adv-x="606" 
d="M303 -10q-57 0 -105 20.5t-83 55.5t-54.5 82.5t-19.5 101.5t19.5 101.5t54.5 82.5t83 55.5t105 20.5q56 0 104 -20.5t83 -55.5t54.5 -82.5t19.5 -101.5t-19.5 -101.5t-54.5 -82.5t-83 -55.5t-104 -20.5zM303 70q39 0 71 14t54.5 38.5t35 57t12.5 70.5q0 37 -12.5 70
t-35 57.5t-54.5 38.5t-71 14t-71 -14t-55 -38.5t-35.5 -57.5t-12.5 -70q0 -38 12.5 -70.5t35.5 -57t55 -38.5t71 -14zM132 611q8 43 37 69t69 26q20 0 38 -7t34.5 -15t30.5 -15t26 -7q33 0 43 44h66l-3 -18q-8 -43 -37 -69t-69 -26q-20 0 -38 7t-34.5 15t-30.5 15t-26 7
q-33 0 -43 -44h-66z" />
    <glyph glyph-name="odieresis" unicode="&#xf6;" horiz-adv-x="606" 
d="M303 -10q-57 0 -105 20.5t-83 55.5t-54.5 82.5t-19.5 101.5t19.5 101.5t54.5 82.5t83 55.5t105 20.5q56 0 104 -20.5t83 -55.5t54.5 -82.5t19.5 -101.5t-19.5 -101.5t-54.5 -82.5t-83 -55.5t-104 -20.5zM303 70q39 0 71 14t54.5 38.5t35 57t12.5 70.5q0 37 -12.5 70
t-35 57.5t-54.5 38.5t-71 14t-71 -14t-55 -38.5t-35.5 -57.5t-12.5 -70q0 -38 12.5 -70.5t35.5 -57t55 -38.5t71 -14zM191 596q-25 0 -42 17t-17 41t17 41.5t42 17.5q24 0 41 -17.5t17 -41.5t-17 -41t-41 -17zM416 596q-24 0 -41.5 17t-17.5 41t17.5 41.5t41.5 17.5
t41 -17.5t17 -41.5t-17 -41t-41 -17z" />
    <glyph glyph-name="oslash" unicode="&#xf8;" horiz-adv-x="616" 
d="M308 -10q-57 0 -105 20.5t-83 55.5t-54.5 82.5t-19.5 101.5t19.5 101.5t54.5 82.5t83 55.5t105 20.5q56 0 104 -20.5t83 -55.5t54.5 -82.5t19.5 -101.5t-19.5 -101.5t-54.5 -82.5t-83 -55.5t-104 -20.5zM308 70q39 0 71 14t54.5 38.5t35 57t12.5 70.5q0 37 -12.5 70
t-35 57.5t-54.5 38.5t-71 14t-71 -14t-55 -38.5t-35.5 -57.5t-12.5 -70q0 -38 12.5 -70.5t35.5 -57t55 -38.5t71 -14zM93 -10l-40 40l471 480l39 -39z" />
    <glyph glyph-name="ugrave" unicode="&#xf9;" horiz-adv-x="579" 
d="M258 -10q-41 0 -75 14.5t-58 40.5t-37.5 63.5t-13.5 84.5v307h86v-294q0 -63 30.5 -100t82.5 -37q29 0 54.5 12.5t44 36t29.5 57.5t11 77v248h86v-500h-86v77q-25 -44 -65.5 -65.5t-88.5 -21.5zM113 750h110l94 -190h-70z" />
    <glyph glyph-name="uacute" unicode="&#xfa;" horiz-adv-x="579" 
d="M258 -10q-41 0 -75 14.5t-58 40.5t-37.5 63.5t-13.5 84.5v307h86v-294q0 -63 30.5 -100t82.5 -37q29 0 54.5 12.5t44 36t29.5 57.5t11 77v248h86v-500h-86v77q-25 -44 -65.5 -65.5t-88.5 -21.5zM348 750h110l-134 -190h-69z" />
    <glyph glyph-name="ucircumflex" unicode="&#xfb;" horiz-adv-x="579" 
d="M258 -10q-41 0 -75 14.5t-58 40.5t-37.5 63.5t-13.5 84.5v307h86v-294q0 -63 30.5 -100t82.5 -37q29 0 54.5 12.5t44 36t29.5 57.5t11 77v248h86v-500h-86v77q-25 -44 -65.5 -65.5t-88.5 -21.5zM444 655v-79l-159 101l-159 -101v79l159 101z" />
    <glyph glyph-name="udieresis" unicode="&#xfc;" horiz-adv-x="579" 
d="M258 -10q-41 0 -75 14.5t-58 40.5t-37.5 63.5t-13.5 84.5v307h86v-294q0 -63 30.5 -100t82.5 -37q29 0 54.5 12.5t44 36t29.5 57.5t11 77v248h86v-500h-86v77q-25 -44 -65.5 -65.5t-88.5 -21.5zM173 596q-25 0 -42 17t-17 41t17 41.5t42 17.5q24 0 41 -17.5t17 -41.5
t-17 -41t-41 -17zM398 596q-24 0 -41.5 17t-17.5 41t17.5 41.5t41.5 17.5t41 -17.5t17 -41.5t-17 -41t-41 -17z" />
    <glyph glyph-name="yacute" unicode="&#xfd;" horiz-adv-x="547" 
d="M118 -209l109 235l-219 474h95l172 -380l171 380h96l-328 -709h-96zM338 750h110l-134 -190h-69z" />
    <glyph glyph-name="thorn" unicode="&#xfe;" horiz-adv-x="630" 
d="M81 -209v959h86v-327q25 36 72 61.5t104 25.5q52 0 97 -20.5t78 -56t51.5 -82.5t18.5 -101t-18.5 -101t-51.5 -82.5t-78 -56t-97 -20.5q-57 0 -104 25.5t-72 61.5v-286h-86zM330 69q38 0 69 14t53.5 38.5t35 57.5t12.5 71t-12.5 71t-35 57.5t-53.5 38.5t-69 14t-69 -14
t-53.5 -38.5t-35 -57.5t-12.5 -71t12.5 -71t35 -57.5t53.5 -38.5t69 -14z" />
    <glyph glyph-name="ydieresis" unicode="&#xff;" horiz-adv-x="547" 
d="M118 -209l109 235l-219 474h95l172 -380l171 380h96l-328 -709h-96zM163 596q-25 0 -42 17t-17 41t17 41.5t42 17.5q24 0 41 -17.5t17 -41.5t-17 -41t-41 -17zM388 596q-24 0 -41.5 17t-17.5 41t17.5 41.5t41.5 17.5t41 -17.5t17 -41.5t-17 -41t-41 -17z" />
    <glyph glyph-name="Abreve" unicode="&#x102;" horiz-adv-x="718" 
d="M320 710h77l315 -710h-97l-92 207h-331l-90 -207h-96zM229 291h257l-129 293zM358 759q-33 0 -62 11t-50.5 31.5t-34 50t-12.5 65.5h58q0 -49 29.5 -75t71.5 -26t71.5 26t29.5 75h58q0 -36 -12.5 -65.5t-34 -50t-50.5 -31.5t-62 -11z" />
    <glyph glyph-name="Amacron" unicode="&#x100;" horiz-adv-x="718" 
d="M320 710h77l315 -710h-97l-92 207h-331l-90 -207h-96zM229 291h257l-129 293zM197 874h322v-69h-322v69z" />
    <glyph glyph-name="Aogonek" unicode="&#x104;" horiz-adv-x="718" 
d="M320 710h77l315 -710q-49 -30 -70.5 -59.5t-21.5 -52.5q0 -17 10.5 -25t25.5 -8q18 0 31.5 6.5t24.5 15.5v-70q-13 -11 -32.5 -18.5t-48.5 -7.5q-40 0 -67.5 25t-27.5 64q0 22 7 41.5t18.5 35.5t25.5 29t28 24l-92 207h-331l-90 -207h-96zM229 291h257l-129 293z" />
    <glyph glyph-name="Cacute" unicode="&#x106;" horiz-adv-x="788" 
d="M414 -12q-78 0 -145.5 28t-117 77.5t-77.5 116.5t-28 145t28 145t77.5 116.5t117 77.5t145.5 28q67 0 124 -20.5t101.5 -54.5t73.5 -78.5t41 -92.5h-98q-12 33 -34.5 62t-54 50.5t-70.5 33.5t-83 12q-59 0 -109.5 -21.5t-87.5 -59t-57.5 -88.5t-20.5 -110t20.5 -110
t57.5 -88.5t87.5 -59t109.5 -21.5q44 0 83 12t70.5 33.5t54 50.5t34.5 62h98q-12 -48 -41 -92.5t-73.5 -78.5t-101.5 -54.5t-124 -20.5zM459 927h108l-114 -157h-72z" />
    <glyph glyph-name="Ccaron" unicode="&#x10c;" horiz-adv-x="788" 
d="M414 -12q-78 0 -145.5 28t-117 77.5t-77.5 116.5t-28 145t28 145t77.5 116.5t117 77.5t145.5 28q67 0 124 -20.5t101.5 -54.5t73.5 -78.5t41 -92.5h-98q-12 33 -34.5 62t-54 50.5t-70.5 33.5t-83 12q-59 0 -109.5 -21.5t-87.5 -59t-57.5 -88.5t-20.5 -110t20.5 -110
t57.5 -88.5t87.5 -59t109.5 -21.5q44 0 83 12t70.5 33.5t54 50.5t34.5 62h98q-12 -48 -41 -92.5t-73.5 -78.5t-101.5 -54.5t-124 -20.5zM243 855v77l166 -87l166 87v-77l-166 -87z" />
    <glyph glyph-name="Ccircumflex" unicode="&#x108;" horiz-adv-x="788" 
d="M414 -12q-78 0 -145.5 28t-117 77.5t-77.5 116.5t-28 145t28 145t77.5 116.5t117 77.5t145.5 28q67 0 124 -20.5t101.5 -54.5t73.5 -78.5t41 -92.5h-98q-12 33 -34.5 62t-54 50.5t-70.5 33.5t-83 12q-59 0 -109.5 -21.5t-87.5 -59t-57.5 -88.5t-20.5 -110t20.5 -110
t57.5 -88.5t87.5 -59t109.5 -21.5q44 0 83 12t70.5 33.5t54 50.5t34.5 62h98q-12 -48 -41 -92.5t-73.5 -78.5t-101.5 -54.5t-124 -20.5zM243 845l166 87l166 -87v-77l-166 87l-166 -87v77z" />
    <glyph glyph-name="Cdotaccent" unicode="&#x10a;" horiz-adv-x="788" 
d="M414 -12q-78 0 -145.5 28t-117 77.5t-77.5 116.5t-28 145t28 145t77.5 116.5t117 77.5t145.5 28q67 0 124 -20.5t101.5 -54.5t73.5 -78.5t41 -92.5h-98q-12 33 -34.5 62t-54 50.5t-70.5 33.5t-83 12q-59 0 -109.5 -21.5t-87.5 -59t-57.5 -88.5t-20.5 -110t20.5 -110
t57.5 -88.5t87.5 -59t109.5 -21.5q44 0 83 12t70.5 33.5t54 50.5t34.5 62h98q-12 -48 -41 -92.5t-73.5 -78.5t-101.5 -54.5t-124 -20.5zM409 785q-25 0 -42 17t-17 41t17 41.5t42 17.5q24 0 41 -17.5t17 -41.5t-17 -41t-41 -17z" />
    <glyph glyph-name="Dcaron" unicode="&#x10e;" horiz-adv-x="721" 
d="M94 710h204q82 0 151 -27t119.5 -74.5t79 -112.5t28.5 -141t-28.5 -141t-79 -112.5t-119.5 -74.5t-151 -27h-204v710zM298 87q64 0 116.5 20t89.5 56t57.5 85t20.5 107t-20.5 107t-57.5 85t-89.5 56t-116.5 20h-111v-536h111zM175 855v77l166 -87l166 87v-77l-166 -87z
" />
    <glyph glyph-name="Dcroat" unicode="&#x110;" horiz-adv-x="729" 
d="M101 710h204q82 0 151 -27t119.5 -74.5t79 -112.5t28.5 -141t-28.5 -141t-79 -112.5t-119.5 -74.5t-151 -27h-204v710zM305 87q64 0 116.5 20t89.5 56t57.5 85t20.5 107t-20.5 107t-57.5 85t-89.5 56t-116.5 20h-111v-536h111zM28 401h326v-82h-326v82z" />
    <glyph glyph-name="Ebreve" unicode="&#x114;" horiz-adv-x="557" 
d="M94 710h414v-88h-321v-215h261v-88h-261v-231h321v-88h-414v710zM301 759q-33 0 -62 11t-50.5 31.5t-34 50t-12.5 65.5h58q0 -49 29.5 -75t71.5 -26t71.5 26t29.5 75h58q0 -36 -12.5 -65.5t-34 -50t-50.5 -31.5t-62 -11z" />
    <glyph glyph-name="Ecaron" unicode="&#x11a;" horiz-adv-x="557" 
d="M94 710h414v-88h-321v-215h261v-88h-261v-231h321v-88h-414v710zM135 855v77l166 -87l166 87v-77l-166 -87z" />
    <glyph glyph-name="Emacron" unicode="&#x112;" horiz-adv-x="557" 
d="M94 710h414v-88h-321v-215h261v-88h-261v-231h321v-88h-414v710zM140 874h322v-69h-322v69z" />
    <glyph glyph-name="Eogonek" unicode="&#x118;" horiz-adv-x="557" 
d="M94 710h414v-88h-321v-215h261v-88h-261v-231h321v-88h-414v710zM427 -219q-40 0 -67.5 25t-27.5 64q0 22 8 41.5t20 35.5t26.5 29t28.5 24h93q-49 -30 -70.5 -59.5t-21.5 -52.5q0 -17 11 -25t25 -8q18 0 31.5 6.5t24.5 15.5v-70q-13 -11 -32.5 -18.5t-48.5 -7.5z" />
    <glyph glyph-name="Edotaccent" unicode="&#x116;" horiz-adv-x="557" 
d="M94 710h414v-88h-321v-215h261v-88h-261v-231h321v-88h-414v710zM301 785q-25 0 -42 17t-17 41t17 41.5t42 17.5q24 0 41 -17.5t17 -41.5t-17 -41t-41 -17z" />
    <glyph glyph-name="Gbreve" unicode="&#x11e;" horiz-adv-x="816" 
d="M414 -12q-78 0 -145.5 28t-117 77.5t-77.5 116.5t-28 145t28 145t77.5 116.5t117 77.5t145.5 28q63 0 117.5 -18t98 -48.5t74.5 -71t46 -84.5h-103q-29 58 -90.5 96t-142.5 38q-59 0 -109.5 -21.5t-87.5 -59t-57.5 -88.5t-20.5 -110t20.5 -110t57.5 -88.5t87.5 -59
t109.5 -21.5q55 0 100.5 18t79.5 50.5t54.5 77t25.5 97.5h-264v87h360q7 -97 -18.5 -174.5t-74.5 -131.5t-117 -83t-146 -29zM414 759q-33 0 -62 11t-50.5 31.5t-34 50t-12.5 65.5h58q0 -49 29.5 -75t71.5 -26t71.5 26t29.5 75h58q0 -36 -12.5 -65.5t-34 -50t-50.5 -31.5
t-62 -11z" />
    <glyph glyph-name="Gcircumflex" unicode="&#x11c;" horiz-adv-x="816" 
d="M414 -12q-78 0 -145.5 28t-117 77.5t-77.5 116.5t-28 145t28 145t77.5 116.5t117 77.5t145.5 28q63 0 117.5 -18t98 -48.5t74.5 -71t46 -84.5h-103q-29 58 -90.5 96t-142.5 38q-59 0 -109.5 -21.5t-87.5 -59t-57.5 -88.5t-20.5 -110t20.5 -110t57.5 -88.5t87.5 -59
t109.5 -21.5q55 0 100.5 18t79.5 50.5t54.5 77t25.5 97.5h-264v87h360q7 -97 -18.5 -174.5t-74.5 -131.5t-117 -83t-146 -29zM248 845l166 87l166 -87v-77l-166 87l-166 -87v77z" />
    <glyph glyph-name="uni0122" unicode="&#x122;" horiz-adv-x="816" 
d="M414 -12q-78 0 -145.5 28t-117 77.5t-77.5 116.5t-28 145t28 145t77.5 116.5t117 77.5t145.5 28q63 0 117.5 -18t98 -48.5t74.5 -71t46 -84.5h-103q-29 58 -90.5 96t-142.5 38q-59 0 -109.5 -21.5t-87.5 -59t-57.5 -88.5t-20.5 -110t20.5 -110t57.5 -88.5t87.5 -59
t109.5 -21.5q55 0 100.5 18t79.5 50.5t54.5 77t25.5 97.5h-264v87h360q7 -97 -18.5 -174.5t-74.5 -131.5t-117 -83t-146 -29zM388 -184q-14 8 -23 21.5t-9 30.5q0 24 17 41.5t41 17.5t41 -17.5t17 -41.5q0 -10 -3 -18.5t-8 -16.5l-64 -102h-45z" />
    <glyph glyph-name="Gdotaccent" unicode="&#x120;" horiz-adv-x="816" 
d="M414 -12q-78 0 -145.5 28t-117 77.5t-77.5 116.5t-28 145t28 145t77.5 116.5t117 77.5t145.5 28q63 0 117.5 -18t98 -48.5t74.5 -71t46 -84.5h-103q-29 58 -90.5 96t-142.5 38q-59 0 -109.5 -21.5t-87.5 -59t-57.5 -88.5t-20.5 -110t20.5 -110t57.5 -88.5t87.5 -59
t109.5 -21.5q55 0 100.5 18t79.5 50.5t54.5 77t25.5 97.5h-264v87h360q7 -97 -18.5 -174.5t-74.5 -131.5t-117 -83t-146 -29zM414 785q-25 0 -42 17t-17 41t17 41.5t42 17.5q24 0 41 -17.5t17 -41.5t-17 -41t-41 -17z" />
    <glyph glyph-name="Hbar" unicode="&#x126;" horiz-adv-x="776" 
d="M101 710h93v-303h389v303h93v-710h-93v320h-389v-320h-93v710zM28 595h721v-72h-721v72z" />
    <glyph glyph-name="Hcircumflex" unicode="&#x124;" horiz-adv-x="763" 
d="M94 710h93v-303h389v303h93v-710h-93v320h-389v-320h-93v710zM215 845l166 87l166 -87v-77l-166 87l-166 -87v77z" />
    <glyph glyph-name="Ibreve" unicode="&#x12c;" horiz-adv-x="281" 
d="M94 710h93v-710h-93v710zM141 759q-33 0 -62 11t-50.5 31.5t-34 50t-12.5 65.5h58q0 -49 29.5 -75t71.5 -26t71.5 26t29.5 75h58q0 -36 -12.5 -65.5t-34 -50t-50.5 -31.5t-62 -11z" />
    <glyph glyph-name="Idotaccent" unicode="&#x130;" horiz-adv-x="281" 
d="M94 710h93v-710h-93v710zM141 785q-25 0 -42 17t-17 41t17 41.5t42 17.5q24 0 41 -17.5t17 -41.5t-17 -41t-41 -17z" />
    <glyph glyph-name="Imacron" unicode="&#x12a;" horiz-adv-x="281" 
d="M94 710h93v-710h-93v710zM-20 874h322v-69h-322v69z" />
    <glyph glyph-name="Iogonek" unicode="&#x12e;" horiz-adv-x="281" 
d="M94 710h93v-710h-93v710zM106 -219q-40 0 -67.5 25t-27.5 64q0 22 8 41.5t20 35.5t26.5 29t28.5 24h93q-49 -30 -70.5 -59.5t-21.5 -52.5q0 -17 11 -25t25 -8q18 0 31.5 6.5t24.5 15.5v-70q-13 -11 -32.5 -18.5t-48.5 -7.5z" />
    <glyph glyph-name="Itilde" unicode="&#x128;" horiz-adv-x="281" 
d="M94 710h93v-710h-93v710zM-29 804q8 43 37 69t69 26q19 0 37.5 -7t34.5 -15t30.5 -15t26.5 -7q33 0 43 44h66l-4 -19q-8 -42 -36.5 -68t-69.5 -26q-20 0 -38 7t-34 15l-30 15t-26 7q-32 0 -44 -44h-65z" />
    <glyph glyph-name="uni1ECA" unicode="&#x1eca;" horiz-adv-x="281" 
d="M94 710h93v-710h-93v710zM141 -190q-25 0 -42 17t-17 41t17 41.5t42 17.5q24 0 41 -17.5t17 -41.5t-17 -41t-41 -17z" />
    <glyph glyph-name="Jcircumflex" unicode="&#x134;" horiz-adv-x="529" 
d="M233 -12q-44 0 -82 13t-67 38.5t-45.5 63.5t-16.5 87h92q0 -29 9.5 -50.5t26 -36t38 -22t44.5 -7.5t44.5 7t37.5 22.5t25.5 41t9.5 61.5v504h92v-514q0 -56 -17 -95.5t-46 -64.5t-66.5 -36.5t-78.5 -11.5zM229 845l166 87l166 -87v-77l-166 87l-166 -87v77z" />
    <glyph glyph-name="uni0136" unicode="&#x136;" horiz-adv-x="671" 
d="M186 338v-338h-92v710h92v-308l310 308h121l-338 -338l415 -372h-131zM348 -184q-14 8 -23 21.5t-9 30.5q0 24 17 41.5t41 17.5t41 -17.5t17 -41.5q0 -10 -3 -18.5t-8 -16.5l-64 -102h-45z" />
    <glyph glyph-name="Lacute" unicode="&#x139;" horiz-adv-x="548" 
d="M94 710h93v-622h343v-88h-436v710zM191 927h108l-114 -157h-72z" />
    <glyph glyph-name="Lcaron" unicode="&#x13d;" horiz-adv-x="548" 
d="M94 710h93v-622h343v-88h-436v710zM311 750h86l-50 -165h-60z" />
    <glyph glyph-name="uni013B" unicode="&#x13b;" horiz-adv-x="548" 
d="M94 710h93v-622h343v-88h-436v710zM280 -184q-14 8 -23 21.5t-9 30.5q0 24 17 41.5t41 17.5t41 -17.5t17 -41.5q0 -10 -3 -18.5t-8 -16.5l-64 -102h-45z" />
    <glyph glyph-name="Ldot" unicode="&#x13f;" horiz-adv-x="553" 
d="M94 710h93v-622h343v-88h-436v710zM417 341q-25 0 -42 17t-17 41t17 41.5t42 17.5q24 0 41 -17.5t17 -41.5t-17 -41t-41 -17z" />
    <glyph glyph-name="Lslash" unicode="&#x141;" horiz-adv-x="567" 
d="M113 710h93v-622h343v-88h-436v710zM40 213v84l325 210v-84z" />
    <glyph glyph-name="Nacute" unicode="&#x143;" horiz-adv-x="794" 
d="M619 0l-432 553v-553h-93v710h81l432 -553v553h92v-710h-80zM443 927h108l-114 -157h-72z" />
    <glyph glyph-name="Ncaron" unicode="&#x147;" horiz-adv-x="794" 
d="M619 0l-432 553v-553h-93v710h81l432 -553v553h92v-710h-80zM227 855v77l166 -87l166 87v-77l-166 -87z" />
    <glyph glyph-name="uni0145" unicode="&#x145;" horiz-adv-x="794" 
d="M619 0l-432 553v-553h-93v710h81l432 -553v553h92v-710h-80zM374 -184q-14 8 -23 21.5t-9 30.5q0 24 17 41.5t41 17.5t41 -17.5t17 -41.5q0 -10 -3 -18.5t-8 -16.5l-64 -102h-45z" />
    <glyph glyph-name="OE" unicode="&#x152;" horiz-adv-x="1149" 
d="M412 76q58 0 108.5 21.5t87 59.5t57.5 88.5t21 109.5q0 58 -21 109t-57.5 89t-87 59.5t-108.5 21.5t-108 -21.5t-86.5 -59.5t-57.5 -89t-21 -109q0 -59 21 -109.5t57.5 -88.5t86.5 -59.5t108 -21.5zM686 118q-48 -62 -117.5 -96t-156.5 -34q-77 0 -143.5 28.5t-116.5 78
t-78.5 116.5t-28.5 144t28.5 144t78.5 116.5t116.5 78t143.5 28.5q87 0 156.5 -34t117.5 -96v118h414v-88h-322v-215h262v-88h-262v-231h322v-88h-414v118z" />
    <glyph glyph-name="Obreve" unicode="&#x14e;" horiz-adv-x="825" 
d="M412 76q58 0 108.5 21.5t87 59.5t57.5 88.5t21 109.5q0 58 -21 109t-57.5 89t-87 59.5t-108.5 21.5t-108 -21.5t-86.5 -59.5t-57.5 -89t-21 -109q0 -59 21 -109.5t57.5 -88.5t86.5 -59.5t108 -21.5zM412 -12q-77 0 -143.5 28.5t-116.5 78t-78.5 116.5t-28.5 144t28.5 144
t78.5 116.5t116.5 78t143.5 28.5t144 -28.5t116.5 -78t78 -116.5t28.5 -144t-28.5 -144t-78 -116.5t-116.5 -78t-144 -28.5zM412 759q-33 0 -62 11t-50.5 31.5t-34 50t-12.5 65.5h58q0 -49 29.5 -75t71.5 -26t71.5 26t29.5 75h58q0 -36 -12.5 -65.5t-34 -50t-50.5 -31.5
t-62 -11z" />
    <glyph glyph-name="Ohungarumlaut" unicode="&#x150;" horiz-adv-x="825" 
d="M412 76q58 0 108.5 21.5t87 59.5t57.5 88.5t21 109.5q0 58 -21 109t-57.5 89t-87 59.5t-108.5 21.5t-108 -21.5t-86.5 -59.5t-57.5 -89t-21 -109q0 -59 21 -109.5t57.5 -88.5t86.5 -59.5t108 -21.5zM412 -12q-77 0 -143.5 28.5t-116.5 78t-78.5 116.5t-28.5 144t28.5 144
t78.5 116.5t116.5 78t143.5 28.5t144 -28.5t116.5 -78t78 -116.5t28.5 -144t-28.5 -144t-78 -116.5t-116.5 -78t-144 -28.5zM536 927h99l-109 -157h-59zM369 927h99l-109 -157h-59z" />
    <glyph glyph-name="Omacron" unicode="&#x14c;" horiz-adv-x="825" 
d="M412 76q58 0 108.5 21.5t87 59.5t57.5 88.5t21 109.5q0 58 -21 109t-57.5 89t-87 59.5t-108.5 21.5t-108 -21.5t-86.5 -59.5t-57.5 -89t-21 -109q0 -59 21 -109.5t57.5 -88.5t86.5 -59.5t108 -21.5zM412 -12q-77 0 -143.5 28.5t-116.5 78t-78.5 116.5t-28.5 144t28.5 144
t78.5 116.5t116.5 78t143.5 28.5t144 -28.5t116.5 -78t78 -116.5t28.5 -144t-28.5 -144t-78 -116.5t-116.5 -78t-144 -28.5zM251 874h322v-69h-322v69z" />
    <glyph glyph-name="uni1ECC" unicode="&#x1ecc;" horiz-adv-x="825" 
d="M412 76q58 0 108.5 21.5t87 59.5t57.5 88.5t21 109.5q0 58 -21 109t-57.5 89t-87 59.5t-108.5 21.5t-108 -21.5t-86.5 -59.5t-57.5 -89t-21 -109q0 -59 21 -109.5t57.5 -88.5t86.5 -59.5t108 -21.5zM412 -12q-77 0 -143.5 28.5t-116.5 78t-78.5 116.5t-28.5 144t28.5 144
t78.5 116.5t116.5 78t143.5 28.5t144 -28.5t116.5 -78t78 -116.5t28.5 -144t-28.5 -144t-78 -116.5t-116.5 -78t-144 -28.5zM412 -190q-25 0 -42 17t-17 41t17 41.5t42 17.5q24 0 41 -17.5t17 -41.5t-17 -41t-41 -17z" />
    <glyph glyph-name="Racute" unicode="&#x154;" horiz-adv-x="635" 
d="M94 710h242q49 0 88.5 -14t67 -40t42 -62t14.5 -80q0 -78 -46.5 -128t-129.5 -62l274 -324h-117l-273 323h-69v-323h-93v710zM325 406q61 0 95.5 27t34.5 81t-34.5 82t-95.5 28h-138v-218h138zM350 927h108l-114 -157h-72z" />
    <glyph glyph-name="Rcaron" unicode="&#x158;" horiz-adv-x="635" 
d="M94 710h242q49 0 88.5 -14t67 -40t42 -62t14.5 -80q0 -78 -46.5 -128t-129.5 -62l274 -324h-117l-273 323h-69v-323h-93v710zM325 406q61 0 95.5 27t34.5 81t-34.5 82t-95.5 28h-138v-218h138zM133 855v77l166 -87l166 87v-77l-166 -87z" />
    <glyph glyph-name="uni0156" unicode="&#x156;" horiz-adv-x="635" 
d="M94 710h242q49 0 88.5 -14t67 -40t42 -62t14.5 -80q0 -78 -46.5 -128t-129.5 -62l274 -324h-117l-273 323h-69v-323h-93v710zM325 406q61 0 95.5 27t34.5 81t-34.5 82t-95.5 28h-138v-218h138zM332 -184q-14 8 -23 21.5t-9 30.5q0 24 17 41.5t41 17.5t41 -17.5t17 -41.5
q0 -10 -3 -18.5t-8 -16.5l-64 -102h-45z" />
    <glyph glyph-name="Sacute" unicode="&#x15a;" horiz-adv-x="562" 
d="M290 -12q-56 0 -101 16.5t-77 44t-50 64t-19 77.5h93q3 -30 18 -51.5t36.5 -35.5t47.5 -21t51 -7q28 0 52.5 7.5t42.5 21t28.5 33t10.5 44.5q0 82 -101 119l-98 36q-83 29 -123 77t-41 123q0 43 16.5 77.5t45 58.5t68 37t86.5 13q54 0 94.5 -17t68 -44t43 -61.5
t18.5 -69.5h-92q-14 56 -52 80.5t-82 24.5q-51 0 -86 -25.5t-35 -70.5t25 -70.5t77 -44.5l91 -33q81 -29 125.5 -78t44.5 -129q0 -45 -17 -81.5t-47 -62t-71.5 -39t-90.5 -13.5zM334 927h108l-114 -157h-72z" />
    <glyph glyph-name="Scaron" unicode="&#x160;" horiz-adv-x="562" 
d="M290 -12q-56 0 -101 16.5t-77 44t-50 64t-19 77.5h93q3 -30 18 -51.5t36.5 -35.5t47.5 -21t51 -7q28 0 52.5 7.5t42.5 21t28.5 33t10.5 44.5q0 82 -101 119l-98 36q-83 29 -123 77t-41 123q0 43 16.5 77.5t45 58.5t68 37t86.5 13q54 0 94.5 -17t68 -44t43 -61.5
t18.5 -69.5h-92q-14 56 -52 80.5t-82 24.5q-51 0 -86 -25.5t-35 -70.5t25 -70.5t77 -44.5l91 -33q81 -29 125.5 -78t44.5 -129q0 -45 -17 -81.5t-47 -62t-71.5 -39t-90.5 -13.5zM117 855v77l166 -87l166 87v-77l-166 -87z" />
    <glyph glyph-name="Scedilla" unicode="&#x15e;" horiz-adv-x="562" 
d="M290 -12q-56 0 -101 16.5t-77 44t-50 64t-19 77.5h93q3 -30 18 -51.5t36.5 -35.5t47.5 -21t51 -7q28 0 52.5 7.5t42.5 21t28.5 33t10.5 44.5q0 82 -101 119l-98 36q-83 29 -123 77t-41 123q0 43 16.5 77.5t45 58.5t68 37t86.5 13q54 0 94.5 -17t68 -44t43 -61.5
t18.5 -69.5h-92q-14 56 -52 80.5t-82 24.5q-51 0 -86 -25.5t-35 -70.5t25 -70.5t77 -44.5l91 -33q81 -29 125.5 -78t44.5 -129q0 -45 -17 -81.5t-47 -62t-71.5 -39t-90.5 -13.5zM182 -149q16 -9 37 -13t39 -4q27 0 47.5 9.5t20.5 31.5q0 30 -46 30q-22 0 -45 -10l-32 21
l52 87h55l-34 -56q17 7 40 7q35 0 57.5 -20t22.5 -56q0 -22 -10 -40t-27.5 -30.5t-41 -19.5t-50.5 -7q-20 0 -42 2.5t-43 12.5v55z" />
    <glyph glyph-name="Scircumflex" unicode="&#x15c;" horiz-adv-x="562" 
d="M290 -12q-56 0 -101 16.5t-77 44t-50 64t-19 77.5h93q3 -30 18 -51.5t36.5 -35.5t47.5 -21t51 -7q28 0 52.5 7.5t42.5 21t28.5 33t10.5 44.5q0 82 -101 119l-98 36q-83 29 -123 77t-41 123q0 43 16.5 77.5t45 58.5t68 37t86.5 13q54 0 94.5 -17t68 -44t43 -61.5
t18.5 -69.5h-92q-14 56 -52 80.5t-82 24.5q-51 0 -86 -25.5t-35 -70.5t25 -70.5t77 -44.5l91 -33q81 -29 125.5 -78t44.5 -129q0 -45 -17 -81.5t-47 -62t-71.5 -39t-90.5 -13.5zM117 845l166 87l166 -87v-77l-166 87l-166 -87v77z" />
    <glyph glyph-name="uni0218" unicode="&#x218;" horiz-adv-x="562" 
d="M290 -12q-56 0 -101 16.5t-77 44t-50 64t-19 77.5h93q3 -30 18 -51.5t36.5 -35.5t47.5 -21t51 -7q28 0 52.5 7.5t42.5 21t28.5 33t10.5 44.5q0 82 -101 119l-98 36q-83 29 -123 77t-41 123q0 43 16.5 77.5t45 58.5t68 37t86.5 13q54 0 94.5 -17t68 -44t43 -61.5
t18.5 -69.5h-92q-14 56 -52 80.5t-82 24.5q-51 0 -86 -25.5t-35 -70.5t25 -70.5t77 -44.5l91 -33q81 -29 125.5 -78t44.5 -129q0 -45 -17 -81.5t-47 -62t-71.5 -39t-90.5 -13.5zM263 -184q-14 8 -23 21.5t-9 30.5q0 24 17 41.5t41 17.5t41 -17.5t17 -41.5q0 -10 -3 -18.5
t-8 -16.5l-64 -102h-45z" />
    <glyph glyph-name="Tcaron" unicode="&#x164;" horiz-adv-x="567" 
d="M238 622h-221v88h533v-88h-221v-622h-91v622zM117 855v77l166 -87l166 87v-77l-166 -87z" />
    <glyph glyph-name="uni0162" unicode="&#x162;" horiz-adv-x="567" 
d="M238 622h-221v88h533v-88h-221v-622h-91v622zM257 -184q-14 8 -23 21.5t-9 30.5q0 24 17 41.5t41 17.5t41 -17.5t17 -41.5q0 -10 -3 -18.5t-8 -16.5l-64 -102h-45z" />
    <glyph glyph-name="uni021A" unicode="&#x21a;" horiz-adv-x="567" 
d="M238 622h-221v88h533v-88h-221v-622h-91v622zM257 -184q-14 8 -23 21.5t-9 30.5q0 24 17 41.5t41 17.5t41 -17.5t17 -41.5q0 -10 -3 -18.5t-8 -16.5l-64 -102h-45z" />
    <glyph glyph-name="Ubreve" unicode="&#x16c;" horiz-adv-x="726" 
d="M363 -12q-62 0 -113 20t-87.5 57.5t-57 91t-20.5 119.5v434h93v-436q0 -96 50.5 -147t134.5 -51t134.5 51t50.5 147v436h93v-434q0 -66 -20.5 -119.5t-57 -91t-88 -57.5t-112.5 -20zM363 759q-33 0 -62 11t-50.5 31.5t-34 50t-12.5 65.5h58q0 -49 29.5 -75t71.5 -26
t71.5 26t29.5 75h58q0 -36 -12.5 -65.5t-34 -50t-50.5 -31.5t-62 -11z" />
    <glyph glyph-name="Uhungarumlaut" unicode="&#x170;" horiz-adv-x="726" 
d="M363 -12q-62 0 -113 20t-87.5 57.5t-57 91t-20.5 119.5v434h93v-436q0 -96 50.5 -147t134.5 -51t134.5 51t50.5 147v436h93v-434q0 -66 -20.5 -119.5t-57 -91t-88 -57.5t-112.5 -20zM487 927h99l-109 -157h-59zM320 927h99l-109 -157h-59z" />
    <glyph glyph-name="Umacron" unicode="&#x16a;" horiz-adv-x="726" 
d="M363 -12q-62 0 -113 20t-87.5 57.5t-57 91t-20.5 119.5v434h93v-436q0 -96 50.5 -147t134.5 -51t134.5 51t50.5 147v436h93v-434q0 -66 -20.5 -119.5t-57 -91t-88 -57.5t-112.5 -20zM202 874h322v-69h-322v69z" />
    <glyph glyph-name="Uogonek" unicode="&#x172;" horiz-adv-x="726" 
d="M418 -219q-41 0 -68 25t-27 64q0 31 16.5 61t52.5 59q-9 -1 -15.5 -1.5t-12.5 -0.5q-62 0 -113.5 20t-88.5 57.5t-57 91t-20 119.5v434h93v-436q0 -96 50.5 -147t134.5 -51t134.5 51t50.5 147v436h93v-434q0 -74 -24.5 -131t-69.5 -95q-24 -20 -48.5 -40.5t-45 -40.5
t-33.5 -40t-13 -40q0 -18 10.5 -26t25.5 -8q18 0 31 6.5t24 15.5v-70q-12 -11 -31.5 -18.5t-48.5 -7.5z" />
    <glyph glyph-name="Uring" unicode="&#x16e;" horiz-adv-x="726" 
d="M363 -12q-62 0 -113 20t-87.5 57.5t-57 91t-20.5 119.5v434h93v-436q0 -96 50.5 -147t134.5 -51t134.5 51t50.5 147v436h93v-434q0 -66 -20.5 -119.5t-57 -91t-88 -57.5t-112.5 -20zM363 753q-25 0 -47 9.5t-38.5 26t-26 38t-9.5 46.5t9.5 46.5t26 38t38.5 26t47 9.5
t47 -9.5t38.5 -26t26.5 -38t10 -46.5t-10 -46.5t-26.5 -38t-38.5 -26t-47 -9.5zM363 804q29 0 50 20t21 49t-21 49.5t-50 20.5t-49 -20.5t-20 -49.5t20 -49t49 -20z" />
    <glyph glyph-name="Utilde" unicode="&#x168;" horiz-adv-x="726" 
d="M363 -12q-62 0 -113 20t-87.5 57.5t-57 91t-20.5 119.5v434h93v-436q0 -96 50.5 -147t134.5 -51t134.5 51t50.5 147v436h93v-434q0 -66 -20.5 -119.5t-57 -91t-88 -57.5t-112.5 -20zM193 804q8 43 37 69t69 26q19 0 37.5 -7t34.5 -15t30.5 -15t26.5 -7q33 0 43 44h66
l-4 -19q-8 -42 -36.5 -68t-69.5 -26q-20 0 -38 7t-34 15l-30 15t-26 7q-32 0 -44 -44h-65z" />
    <glyph glyph-name="uni1EE4" unicode="&#x1ee4;" horiz-adv-x="726" 
d="M363 -12q-62 0 -113 20t-87.5 57.5t-57 91t-20.5 119.5v434h93v-436q0 -96 50.5 -147t134.5 -51t134.5 51t50.5 147v436h93v-434q0 -66 -20.5 -119.5t-57 -91t-88 -57.5t-112.5 -20zM363 -190q-25 0 -42 17t-17 41t17 41.5t42 17.5q24 0 41 -17.5t17 -41.5t-17 -41
t-41 -17z" />
    <glyph glyph-name="Wacute" unicode="&#x1e82;" horiz-adv-x="947" 
d="M473 482l-173 -482h-83l-194 710h97l148 -554l205 566l205 -566l149 554h97l-194 -710h-83zM524 927h108l-114 -157h-72z" />
    <glyph glyph-name="Wcircumflex" unicode="&#x174;" horiz-adv-x="947" 
d="M473 482l-173 -482h-83l-194 710h97l148 -554l205 566l205 -566l149 554h97l-194 -710h-83zM307 845l166 87l166 -87v-77l-166 87l-166 -87v77z" />
    <glyph glyph-name="Wdieresis" unicode="&#x1e84;" horiz-adv-x="947" 
d="M473 482l-173 -482h-83l-194 710h97l148 -554l205 566l205 -566l149 554h97l-194 -710h-83zM361 785q-25 0 -42 17t-17 41t17 41.5t42 17.5q24 0 41 -17.5t17 -41.5t-17 -41t-41 -17zM586 785q-24 0 -41.5 17t-17.5 41t17.5 41.5t41.5 17.5t41 -17.5t17 -41.5t-17 -41
t-41 -17z" />
    <glyph glyph-name="Wgrave" unicode="&#x1e80;" horiz-adv-x="947" 
d="M473 482l-173 -482h-83l-194 710h97l148 -554l205 566l205 -566l149 554h97l-194 -710h-83zM435 770l-114 157h108l78 -157h-72z" />
    <glyph glyph-name="Ycircumflex" unicode="&#x176;" horiz-adv-x="674" 
d="M291 301l-276 409h111l211 -316l212 316h111l-277 -410v-300h-92v301zM171 845l166 87l166 -87v-77l-166 87l-166 -87v77z" />
    <glyph glyph-name="Ydieresis" unicode="&#x178;" horiz-adv-x="674" 
d="M291 301l-276 409h111l211 -316l212 316h111l-277 -410v-300h-92v301zM225 785q-25 0 -42 17t-17 41t17 41.5t42 17.5q24 0 41 -17.5t17 -41.5t-17 -41t-41 -17zM450 785q-24 0 -41.5 17t-17.5 41t17.5 41.5t41.5 17.5t41 -17.5t17 -41.5t-17 -41t-41 -17z" />
    <glyph glyph-name="Ygrave" unicode="&#x1ef2;" horiz-adv-x="674" 
d="M291 301l-276 409h111l211 -316l212 316h111l-277 -410v-300h-92v301zM298 770l-114 157h108l78 -157h-72z" />
    <glyph glyph-name="uni0232" unicode="&#x232;" horiz-adv-x="674" 
d="M291 301l-276 409h111l211 -316l212 316h111l-277 -410v-300h-92v301zM176 874h322v-69h-322v69z" />
    <glyph glyph-name="Zacute" unicode="&#x179;" horiz-adv-x="587" 
d="M34 62l385 560h-374v88h497v-62l-385 -560h395v-88h-518v62zM351 927h108l-114 -157h-72z" />
    <glyph glyph-name="Zcaron" unicode="&#x17d;" horiz-adv-x="587" 
d="M34 62l385 560h-374v88h497v-62l-385 -560h395v-88h-518v62zM135 855v77l166 -87l166 87v-77l-166 -87z" />
    <glyph glyph-name="Zdotaccent" unicode="&#x17b;" horiz-adv-x="587" 
d="M34 62l385 560h-374v88h497v-62l-385 -560h395v-88h-518v62zM301 785q-25 0 -42 17t-17 41t17 41.5t42 17.5q24 0 41 -17.5t17 -41.5t-17 -41t-41 -17z" />
    <glyph glyph-name="uni1E9E" unicode="&#x1e9e;" horiz-adv-x="634" 
d="M94 710h441v-61l-133 -204q89 -16 137.5 -69.5t48.5 -147.5q0 -56 -19 -99t-52.5 -71.5t-80.5 -43t-103 -14.5h-37v88h44q34 0 62.5 9t49.5 26.5t32.5 43.5t11.5 61t-11.5 61t-32.5 43.5t-49.5 26.5t-62.5 9h-44v70l123 188h-232v-626h-93v710z" />
    <glyph glyph-name="abreve" unicode="&#x103;" horiz-adv-x="630" 
d="M287 -10q-53 0 -97.5 20.5t-77.5 56t-51.5 82.5t-18.5 101t18.5 101t51.5 82.5t77.5 56t97.5 20.5q57 0 104 -25.5t72 -61.5v77h86v-500h-86v77q-25 -36 -72 -61.5t-104 -25.5zM300 69q38 0 69 14t53.5 38.5t35 57.5t12.5 71t-12.5 71t-35 57.5t-53.5 38.5t-69 14
t-69.5 -14t-54 -38.5t-35 -57.5t-12.5 -71t12.5 -71t35 -57.5t54 -38.5t69.5 -14zM320 578q-33 0 -62 11t-50.5 32t-34 50.5t-12.5 65.5v13h58v-13q0 -50 29.5 -75.5t71.5 -25.5t71.5 25.5t29.5 75.5v13h58v-13q0 -36 -12.5 -65.5t-34 -50.5t-50.5 -32t-62 -11z" />
    <glyph glyph-name="amacron" unicode="&#x101;" horiz-adv-x="630" 
d="M287 -10q-53 0 -97.5 20.5t-77.5 56t-51.5 82.5t-18.5 101t18.5 101t51.5 82.5t77.5 56t97.5 20.5q57 0 104 -25.5t72 -61.5v77h86v-500h-86v77q-25 -36 -72 -61.5t-104 -25.5zM300 69q38 0 69 14t53.5 38.5t35 57.5t12.5 71t-12.5 71t-35 57.5t-53.5 38.5t-69 14
t-69.5 -14t-54 -38.5t-35 -57.5t-12.5 -71t12.5 -71t35 -57.5t54 -38.5t69.5 -14zM159 710h322v-69h-322v69z" />
    <glyph glyph-name="aogonek" unicode="&#x105;" horiz-adv-x="630" 
d="M287 -10q-53 0 -97.5 20.5t-77.5 56t-51.5 82.5t-18.5 101t18.5 101t51.5 82.5t77.5 56t97.5 20.5q57 0 104 -25.5t72 -61.5v77h86v-500h-86v77q-25 -36 -72 -61.5t-104 -25.5zM300 69q38 0 69 14t53.5 38.5t35 57.5t12.5 71t-12.5 71t-35 57.5t-53.5 38.5t-69 14
t-69.5 -14t-54 -38.5t-35 -57.5t-12.5 -71t12.5 -71t35 -57.5t54 -38.5t69.5 -14zM471 -219q-40 0 -67 24.5t-27 62.5q0 24 8 44t21 35.5t27.5 28.5t28.5 24h86q-48 -30 -70.5 -60t-22.5 -55q0 -20 11.5 -28.5t26.5 -8.5q18 0 31 7t24 15v-63q-12 -11 -31.5 -18.5
t-45.5 -7.5z" />
    <glyph glyph-name="cacute" unicode="&#x107;" horiz-adv-x="588" 
d="M303 -10q-57 0 -105 20.5t-82.5 56t-54 82.5t-19.5 101t19.5 101t54 82.5t82.5 56t105 20.5q47 0 88.5 -14t74.5 -38.5t55.5 -59t33.5 -74.5h-92q-17 48 -59 77.5t-101 29.5q-39 0 -71 -14t-55 -38.5t-35.5 -57.5t-12.5 -71t12.5 -71t35.5 -57.5t55 -38.5t71 -14
q59 0 101 29.5t59 77.5h92q-11 -41 -33.5 -75t-55.5 -58.5t-74.5 -38.5t-88.5 -14zM366 750h110l-134 -190h-69z" />
    <glyph glyph-name="ccaron" unicode="&#x10d;" horiz-adv-x="588" 
d="M303 -10q-57 0 -105 20.5t-82.5 56t-54 82.5t-19.5 101t19.5 101t54 82.5t82.5 56t105 20.5q47 0 88.5 -14t74.5 -38.5t55.5 -59t33.5 -74.5h-92q-17 48 -59 77.5t-101 29.5q-39 0 -71 -14t-55 -38.5t-35.5 -57.5t-12.5 -71t12.5 -71t35.5 -57.5t55 -38.5t71 -14
q59 0 101 29.5t59 77.5h92q-11 -41 -33.5 -75t-55.5 -58.5t-74.5 -38.5t-88.5 -14zM145 677v79l159 -101l159 101v-79l-159 -101z" />
    <glyph glyph-name="ccircumflex" unicode="&#x109;" horiz-adv-x="588" 
d="M303 -10q-57 0 -105 20.5t-82.5 56t-54 82.5t-19.5 101t19.5 101t54 82.5t82.5 56t105 20.5q47 0 88.5 -14t74.5 -38.5t55.5 -59t33.5 -74.5h-92q-17 48 -59 77.5t-101 29.5q-39 0 -71 -14t-55 -38.5t-35.5 -57.5t-12.5 -71t12.5 -71t35.5 -57.5t55 -38.5t71 -14
q59 0 101 29.5t59 77.5h92q-11 -41 -33.5 -75t-55.5 -58.5t-74.5 -38.5t-88.5 -14zM463 655v-79l-159 101l-159 -101v79l159 101z" />
    <glyph glyph-name="cdotaccent" unicode="&#x10b;" horiz-adv-x="588" 
d="M303 -10q-57 0 -105 20.5t-82.5 56t-54 82.5t-19.5 101t19.5 101t54 82.5t82.5 56t105 20.5q47 0 88.5 -14t74.5 -38.5t55.5 -59t33.5 -74.5h-92q-17 48 -59 77.5t-101 29.5q-39 0 -71 -14t-55 -38.5t-35.5 -57.5t-12.5 -71t12.5 -71t35.5 -57.5t55 -38.5t71 -14
q59 0 101 29.5t59 77.5h92q-11 -41 -33.5 -75t-55.5 -58.5t-74.5 -38.5t-88.5 -14zM304 596q-25 0 -42 17t-17 41t17 41.5t42 17.5q24 0 41 -17.5t17 -41.5t-17 -41t-41 -17z" />
    <glyph glyph-name="dcaron" unicode="&#x10f;" horiz-adv-x="630" 
d="M287 -10q-53 0 -97.5 20.5t-77.5 56t-51.5 82.5t-18.5 101t18.5 101t51.5 82.5t77.5 56t97.5 20.5q57 0 104 -25.5t72 -61.5v327h86v-750h-86v77q-25 -36 -72 -61.5t-104 -25.5zM300 69q38 0 69 14t53.5 38.5t35 57.5t12.5 71t-12.5 71t-35 57.5t-53.5 38.5t-69 14
t-69.5 -14t-54 -38.5t-35 -57.5t-12.5 -71t12.5 -71t35 -57.5t54 -38.5t69.5 -14zM608 750h86l-50 -165h-60z" />
    <glyph glyph-name="dcroat" unicode="&#x111;" horiz-adv-x="630" 
d="M287 -10q-53 0 -97.5 20.5t-77.5 56t-51.5 82.5t-18.5 101t18.5 101t51.5 82.5t77.5 56t97.5 20.5q57 0 104 -25.5t72 -61.5v327h86v-750h-86v77q-25 -36 -72 -61.5t-104 -25.5zM300 69q38 0 69 14t53.5 38.5t35 57.5t12.5 71t-12.5 71t-35 57.5t-53.5 38.5t-69 14
t-69.5 -14t-54 -38.5t-35 -57.5t-12.5 -71t12.5 -71t35 -57.5t54 -38.5t69.5 -14zM297 577v68h323v-68h-323z" />
    <glyph glyph-name="ebreve" unicode="&#x115;" horiz-adv-x="579" 
d="M294 -10q-55 0 -101 19.5t-79.5 54.5t-52.5 82.5t-19 103.5q0 55 17.5 102.5t50.5 82.5t80 55t106 20t105.5 -22.5t78 -61t46 -90t10.5 -109.5h-407q1 -34 14.5 -63t35.5 -50.5t52 -33.5t64 -12q47 0 84.5 19.5t60.5 64.5h88q-9 -33 -29 -62.5t-49.5 -51.5t-68.5 -35
t-87 -13zM293 434q-27 0 -53 -8t-47.5 -25t-37.5 -43t-22 -63h312q-12 70 -54 104.5t-98 34.5zM296 578q-33 0 -62 11t-50.5 32t-34 50.5t-12.5 65.5v13h58v-13q0 -50 29.5 -75.5t71.5 -25.5t71.5 25.5t29.5 75.5v13h58v-13q0 -36 -12.5 -65.5t-34 -50.5t-50.5 -32t-62 -11z
" />
    <glyph glyph-name="ecaron" unicode="&#x11b;" horiz-adv-x="579" 
d="M294 -10q-55 0 -101 19.5t-79.5 54.5t-52.5 82.5t-19 103.5q0 55 17.5 102.5t50.5 82.5t80 55t106 20t105.5 -22.5t78 -61t46 -90t10.5 -109.5h-407q1 -34 14.5 -63t35.5 -50.5t52 -33.5t64 -12q47 0 84.5 19.5t60.5 64.5h88q-9 -33 -29 -62.5t-49.5 -51.5t-68.5 -35
t-87 -13zM293 434q-27 0 -53 -8t-47.5 -25t-37.5 -43t-22 -63h312q-12 70 -54 104.5t-98 34.5zM137 677v79l159 -101l159 101v-79l-159 -101z" />
    <glyph glyph-name="emacron" unicode="&#x113;" horiz-adv-x="579" 
d="M294 -10q-55 0 -101 19.5t-79.5 54.5t-52.5 82.5t-19 103.5q0 55 17.5 102.5t50.5 82.5t80 55t106 20t105.5 -22.5t78 -61t46 -90t10.5 -109.5h-407q1 -34 14.5 -63t35.5 -50.5t52 -33.5t64 -12q47 0 84.5 19.5t60.5 64.5h88q-9 -33 -29 -62.5t-49.5 -51.5t-68.5 -35
t-87 -13zM293 434q-27 0 -53 -8t-47.5 -25t-37.5 -43t-22 -63h312q-12 70 -54 104.5t-98 34.5zM135 710h322v-69h-322v69z" />
    <glyph glyph-name="eogonek" unicode="&#x119;" horiz-adv-x="580" 
d="M528 152q-5 -19 -14 -36t-20 -34q-26 -38 -41.5 -68t-24 -53t-11.5 -39.5t-3 -26.5q0 -23 13.5 -35t36.5 -12q16 0 29.5 6.5t24.5 15.5v-63q-12 -11 -32.5 -18.5t-44.5 -7.5q-46 0 -75.5 27.5t-29.5 70.5q0 62 49 125q-27 -9 -49 -11.5t-42 -2.5q-55 0 -101 19.5
t-79.5 54.5t-52.5 82.5t-19 103.5q0 55 17.5 102.5t50.5 82.5t80 55t106 20t105.5 -22.5t78 -61t46 -90t10.5 -109.5h-407q1 -34 14.5 -63t35.5 -50.5t52 -33.5t64 -12q47 0 84.5 19.5t60.5 64.5h88zM293 434q-27 0 -53 -8t-47.5 -25t-37.5 -43t-22 -63h312
q-12 70 -54 104.5t-98 34.5z" />
    <glyph glyph-name="edotaccent" unicode="&#x117;" horiz-adv-x="579" 
d="M294 -10q-55 0 -101 19.5t-79.5 54.5t-52.5 82.5t-19 103.5q0 55 17.5 102.5t50.5 82.5t80 55t106 20t105.5 -22.5t78 -61t46 -90t10.5 -109.5h-407q1 -34 14.5 -63t35.5 -50.5t52 -33.5t64 -12q47 0 84.5 19.5t60.5 64.5h88q-9 -33 -29 -62.5t-49.5 -51.5t-68.5 -35
t-87 -13zM293 434q-27 0 -53 -8t-47.5 -25t-37.5 -43t-22 -63h312q-12 70 -54 104.5t-98 34.5zM296 596q-25 0 -42 17t-17 41t17 41.5t42 17.5q24 0 41 -17.5t17 -41.5t-17 -41t-41 -17z" />
    <glyph glyph-name="gbreve" unicode="&#x11f;" horiz-adv-x="628" 
d="M301 -219q-50 0 -92 13t-73.5 36t-51 54.5t-25.5 69.5h84q17 -50 58 -73.5t102 -23.5q34 0 63 11t50 33t33 54.5t12 74.5v59q-26 -38 -72 -63t-102 -25q-52 0 -97 19.5t-78 54t-51.5 81t-18.5 100.5q0 53 18.5 99.5t51.5 81t78 54t97 19.5q56 0 102 -24.5t72 -62.5v77h86
v-469q0 -63 -19.5 -109.5t-52.5 -78t-78 -47t-96 -15.5zM299 81q37 0 68.5 13t53.5 36.5t34.5 55.5t12.5 70q0 37 -12.5 69.5t-34.5 55.5t-53.5 36.5t-68.5 13.5q-38 0 -69 -13.5t-53 -36.5t-34.5 -55.5t-12.5 -69.5q0 -38 12.5 -70t34.5 -55.5t53 -36.5t69 -13zM314 578
q-33 0 -62 11t-50.5 32t-34 50.5t-12.5 65.5v13h58v-13q0 -50 29.5 -75.5t71.5 -25.5t71.5 25.5t29.5 75.5v13h58v-13q0 -36 -12.5 -65.5t-34 -50.5t-50.5 -32t-62 -11z" />
    <glyph glyph-name="gcircumflex" unicode="&#x11d;" horiz-adv-x="628" 
d="M301 -219q-50 0 -92 13t-73.5 36t-51 54.5t-25.5 69.5h84q17 -50 58 -73.5t102 -23.5q34 0 63 11t50 33t33 54.5t12 74.5v59q-26 -38 -72 -63t-102 -25q-52 0 -97 19.5t-78 54t-51.5 81t-18.5 100.5q0 53 18.5 99.5t51.5 81t78 54t97 19.5q56 0 102 -24.5t72 -62.5v77h86
v-469q0 -63 -19.5 -109.5t-52.5 -78t-78 -47t-96 -15.5zM299 81q37 0 68.5 13t53.5 36.5t34.5 55.5t12.5 70q0 37 -12.5 69.5t-34.5 55.5t-53.5 36.5t-68.5 13.5q-38 0 -69 -13.5t-53 -36.5t-34.5 -55.5t-12.5 -69.5q0 -38 12.5 -70t34.5 -55.5t53 -36.5t69 -13zM473 655
v-79l-159 101l-159 -101v79l159 101z" />
    <glyph glyph-name="uni0123" unicode="&#x123;" horiz-adv-x="628" 
d="M301 -219q-50 0 -92 13t-73.5 36t-51 54.5t-25.5 69.5h84q17 -50 58 -73.5t102 -23.5q34 0 63 11t50 33t33 54.5t12 74.5v59q-26 -38 -72 -63t-102 -25q-52 0 -97 19.5t-78 54t-51.5 81t-18.5 100.5q0 53 18.5 99.5t51.5 81t78 54t97 19.5q56 0 102 -24.5t72 -62.5v77h86
v-469q0 -63 -19.5 -109.5t-52.5 -78t-78 -47t-96 -15.5zM299 81q37 0 68.5 13t53.5 36.5t34.5 55.5t12.5 70q0 37 -12.5 69.5t-34.5 55.5t-53.5 36.5t-68.5 13.5q-38 0 -69 -13.5t-53 -36.5t-34.5 -55.5t-12.5 -69.5q0 -38 12.5 -70t34.5 -55.5t53 -36.5t69 -13zM314 596
q-24 0 -41 17.5t-17 41.5q0 9 3 18t8 16l64 103h45l-36 -85q14 -8 23 -21.5t9 -30.5q0 -24 -17 -41.5t-41 -17.5z" />
    <glyph glyph-name="gdotaccent" unicode="&#x121;" horiz-adv-x="628" 
d="M301 -219q-50 0 -92 13t-73.5 36t-51 54.5t-25.5 69.5h84q17 -50 58 -73.5t102 -23.5q34 0 63 11t50 33t33 54.5t12 74.5v59q-26 -38 -72 -63t-102 -25q-52 0 -97 19.5t-78 54t-51.5 81t-18.5 100.5q0 53 18.5 99.5t51.5 81t78 54t97 19.5q56 0 102 -24.5t72 -62.5v77h86
v-469q0 -63 -19.5 -109.5t-52.5 -78t-78 -47t-96 -15.5zM299 81q37 0 68.5 13t53.5 36.5t34.5 55.5t12.5 70q0 37 -12.5 69.5t-34.5 55.5t-53.5 36.5t-68.5 13.5q-38 0 -69 -13.5t-53 -36.5t-34.5 -55.5t-12.5 -69.5q0 -38 12.5 -70t34.5 -55.5t53 -36.5t69 -13zM314 596
q-25 0 -42 17t-17 41t17 41.5t42 17.5q24 0 41 -17.5t17 -41.5t-17 -41t-41 -17z" />
    <glyph glyph-name="hbar" unicode="&#x127;" horiz-adv-x="589" 
d="M81 0v750h86v-327q26 45 68 66t91 21q42 0 77 -14t59.5 -40.5t38.5 -64t14 -83.5v-308h-85v295q0 63 -32.5 99.5t-85.5 36.5q-30 0 -56.5 -12t-46 -35.5t-31 -57.5t-11.5 -78v-248h-86zM11 577v68h323v-68h-323z" />
    <glyph glyph-name="hcircumflex" unicode="&#x125;" horiz-adv-x="589" 
d="M81 0v750h86v-327q26 45 68 66t91 21q42 0 77 -14t59.5 -40.5t38.5 -64t14 -83.5v-308h-85v295q0 63 -32.5 99.5t-85.5 36.5q-30 0 -56.5 -12t-46 -35.5t-31 -57.5t-11.5 -78v-248h-86zM135 845l166 87l166 -87v-77l-166 87l-166 -87v77z" />
    <glyph glyph-name="dotlessi" unicode="&#x131;" horiz-adv-x="249" 
d="M81 500h86v-500h-86v500z" />
    <glyph glyph-name="ibreve" unicode="&#x12d;" horiz-adv-x="249" 
d="M81 500h86v-500h-86v500zM124 578q-33 0 -62 11t-50.5 32t-34 50.5t-12.5 65.5v13h58v-13q0 -50 29.5 -75.5t71.5 -25.5t71.5 25.5t29.5 75.5v13h58v-13q0 -36 -12.5 -65.5t-34 -50.5t-50.5 -32t-62 -11z" />
    <glyph glyph-name="imacron" unicode="&#x12b;" horiz-adv-x="249" 
d="M81 500h86v-500h-86v500zM-37 710h322v-69h-322v69z" />
    <glyph glyph-name="iogonek" unicode="&#x12f;" horiz-adv-x="249" 
d="M125 634q-26 0 -44 17.5t-18 43.5q0 25 18 43t44 18t43 -18t17 -43q0 -26 -17 -43.5t-43 -17.5zM81 500h86v-500h-86v500zM90 -219q-40 0 -67 24.5t-27 62.5q0 24 8 44t21 35.5t27.5 28.5t28.5 24h86q-48 -30 -70.5 -60t-22.5 -55q0 -20 11.5 -28.5t26.5 -8.5q18 0 31 7
t24 15v-63q-12 -11 -31.5 -18.5t-45.5 -7.5z" />
    <glyph glyph-name="itilde" unicode="&#x129;" horiz-adv-x="249" 
d="M81 500h86v-500h-86v500zM-47 611q8 43 37 69t69 26q20 0 38 -7t34.5 -15t30.5 -15t26 -7q33 0 43 44h66l-3 -18q-8 -43 -37 -69t-69 -26q-20 0 -38 7t-34.5 15t-30.5 15t-26 7q-33 0 -43 -44h-66z" />
    <glyph glyph-name="uni1ECB" unicode="&#x1ecb;" horiz-adv-x="249" 
d="M125 634q-26 0 -44 17.5t-18 43.5q0 25 18 43t44 18t43 -18t17 -43q0 -26 -17 -43.5t-43 -17.5zM81 500h86v-500h-86v500zM125 -190q-25 0 -42 17t-17 41t17 41.5t42 17.5q24 0 41 -17.5t17 -41.5t-17 -41t-41 -17z" />
    <glyph glyph-name="uni0237" unicode="&#x237;" horiz-adv-x="257" 
d="M175 -66q0 -39 -11.5 -68t-32 -47.5t-48 -28t-59.5 -9.5q-23 0 -41 3v77q6 -1 13 -1.5t16 -0.5q35 0 56 18.5t21 66.5v556h86v-566z" />
    <glyph glyph-name="jcircumflex" unicode="&#x135;" horiz-adv-x="257" 
d="M175 -66q0 -39 -11.5 -68t-32 -47.5t-48 -28t-59.5 -9.5q-23 0 -41 3v77q6 -1 13 -1.5t16 -0.5q35 0 56 18.5t21 66.5v556h86v-566zM291 655v-79l-159 101l-159 -101v79l159 101z" />
    <glyph glyph-name="uni0137" unicode="&#x137;" horiz-adv-x="539" 
d="M167 250v-250h-86v750h86v-445l218 195h114l-246 -221l301 -279h-116zM275 -184q-14 8 -23 21.5t-9 30.5q0 24 17 41.5t41 17.5t41 -17.5t17 -41.5q0 -10 -3 -18.5t-8 -16.5l-64 -102h-45z" />
    <glyph glyph-name="lacute" unicode="&#x13a;" horiz-adv-x="249" 
d="M81 750h86v-750h-86v750zM187 1000h110l-134 -190h-69z" />
    <glyph glyph-name="lcaron" unicode="&#x13e;" horiz-adv-x="249" 
d="M81 750h86v-750h-86v750zM228 750h86l-50 -165h-60z" />
    <glyph glyph-name="uni013C" unicode="&#x13c;" horiz-adv-x="249" 
d="M81 750h86v-750h-86v750zM98 -184q-14 8 -23 21.5t-9 30.5q0 24 17 41.5t41 17.5t41 -17.5t17 -41.5q0 -10 -3 -18.5t-8 -16.5l-64 -102h-45z" />
    <glyph glyph-name="ldot" unicode="&#x140;" horiz-adv-x="383" 
d="M81 750h86v-750h-86v750zM317 317q-25 0 -42 17t-17 41t17 41.5t42 17.5q24 0 41 -17.5t17 -41.5t-17 -41t-41 -17z" />
    <glyph glyph-name="lslash" unicode="&#x142;" horiz-adv-x="319" 
d="M118 750h86v-750h-86v750zM39 257v78l244 156v-77z" />
    <glyph glyph-name="nacute" unicode="&#x144;" horiz-adv-x="589" 
d="M81 500h86v-77q26 45 68 66t91 21q42 0 77 -14t59.5 -40.5t38.5 -64t14 -83.5v-308h-85v295q0 63 -32.5 99.5t-85.5 36.5q-30 0 -56.5 -12t-46 -35.5t-31 -57.5t-11.5 -78v-248h-86v500zM361 750h110l-134 -190h-69z" />
    <glyph glyph-name="ncaron" unicode="&#x148;" horiz-adv-x="589" 
d="M81 500h86v-77q26 45 68 66t91 21q42 0 77 -14t59.5 -40.5t38.5 -64t14 -83.5v-308h-85v295q0 63 -32.5 99.5t-85.5 36.5q-30 0 -56.5 -12t-46 -35.5t-31 -57.5t-11.5 -78v-248h-86v500zM139 677v79l159 -101l159 101v-79l-159 -101z" />
    <glyph glyph-name="uni0146" unicode="&#x146;" horiz-adv-x="589" 
d="M81 500h86v-77q26 45 68 66t91 21q42 0 77 -14t59.5 -40.5t38.5 -64t14 -83.5v-308h-85v295q0 63 -32.5 99.5t-85.5 36.5q-30 0 -56.5 -12t-46 -35.5t-31 -57.5t-11.5 -78v-248h-86v500zM272 -184q-14 8 -23 21.5t-9 30.5q0 24 17 41.5t41 17.5t41 -17.5t17 -41.5
q0 -10 -3 -18.5t-8 -16.5l-64 -102h-45z" />
    <glyph glyph-name="oe" unicode="&#x153;" horiz-adv-x="1013" 
d="M303 -10q-57 0 -105 20.5t-83 55.5t-54.5 82.5t-19.5 101.5t19.5 101.5t54.5 82.5t83 55.5t105 20.5q69 0 124.5 -30t90.5 -80q32 51 86 80.5t126 29.5q59 0 105.5 -22.5t78 -61t46 -90t10.5 -109.5h-407q1 -34 14.5 -63t35.5 -50.5t52 -33.5t64 -12q47 0 84.5 19.5
t60.5 64.5h89q-10 -33 -30 -62.5t-49.5 -51.5t-68.5 -35t-87 -13q-69 0 -123.5 29.5t-86.5 80.5q-35 -50 -90.5 -80t-124.5 -30zM303 70q39 0 71 14t54.5 38.5t35 57t12.5 70.5q0 37 -12.5 70t-35 57.5t-54.5 38.5t-71 14t-71 -14t-55 -38.5t-35.5 -57.5t-12.5 -70
q0 -38 12.5 -70.5t35.5 -57t55 -38.5t71 -14zM727 434q-27 0 -53 -8t-47.5 -25t-37.5 -43t-22 -63h312q-12 70 -54 104.5t-98 34.5z" />
    <glyph glyph-name="obreve" unicode="&#x14f;" horiz-adv-x="606" 
d="M303 -10q-57 0 -105 20.5t-83 55.5t-54.5 82.5t-19.5 101.5t19.5 101.5t54.5 82.5t83 55.5t105 20.5q56 0 104 -20.5t83 -55.5t54.5 -82.5t19.5 -101.5t-19.5 -101.5t-54.5 -82.5t-83 -55.5t-104 -20.5zM303 70q39 0 71 14t54.5 38.5t35 57t12.5 70.5q0 37 -12.5 70
t-35 57.5t-54.5 38.5t-71 14t-71 -14t-55 -38.5t-35.5 -57.5t-12.5 -70q0 -38 12.5 -70.5t35.5 -57t55 -38.5t71 -14zM303 578q-33 0 -62 11t-50.5 32t-34 50.5t-12.5 65.5v13h58v-13q0 -50 29.5 -75.5t71.5 -25.5t71.5 25.5t29.5 75.5v13h58v-13q0 -36 -12.5 -65.5
t-34 -50.5t-50.5 -32t-62 -11z" />
    <glyph glyph-name="ohungarumlaut" unicode="&#x151;" horiz-adv-x="606" 
d="M303 -10q-57 0 -105 20.5t-83 55.5t-54.5 82.5t-19.5 101.5t19.5 101.5t54.5 82.5t83 55.5t105 20.5q56 0 104 -20.5t83 -55.5t54.5 -82.5t19.5 -101.5t-19.5 -101.5t-54.5 -82.5t-83 -55.5t-104 -20.5zM303 70q39 0 71 14t54.5 38.5t35 57t12.5 70.5q0 37 -12.5 70
t-35 57.5t-54.5 38.5t-71 14t-71 -14t-55 -38.5t-35.5 -57.5t-12.5 -70q0 -38 12.5 -70.5t35.5 -57t55 -38.5t71 -14zM424 750h99l-109 -190h-59zM257 750h99l-109 -190h-59z" />
    <glyph glyph-name="omacron" unicode="&#x14d;" horiz-adv-x="606" 
d="M303 -10q-57 0 -105 20.5t-83 55.5t-54.5 82.5t-19.5 101.5t19.5 101.5t54.5 82.5t83 55.5t105 20.5q56 0 104 -20.5t83 -55.5t54.5 -82.5t19.5 -101.5t-19.5 -101.5t-54.5 -82.5t-83 -55.5t-104 -20.5zM303 70q39 0 71 14t54.5 38.5t35 57t12.5 70.5q0 37 -12.5 70
t-35 57.5t-54.5 38.5t-71 14t-71 -14t-55 -38.5t-35.5 -57.5t-12.5 -70q0 -38 12.5 -70.5t35.5 -57t55 -38.5t71 -14zM142 710h322v-69h-322v69z" />
    <glyph glyph-name="uni1ECD" unicode="&#x1ecd;" horiz-adv-x="606" 
d="M303 -10q-57 0 -105 20.5t-83 55.5t-54.5 82.5t-19.5 101.5t19.5 101.5t54.5 82.5t83 55.5t105 20.5q56 0 104 -20.5t83 -55.5t54.5 -82.5t19.5 -101.5t-19.5 -101.5t-54.5 -82.5t-83 -55.5t-104 -20.5zM303 70q39 0 71 14t54.5 38.5t35 57t12.5 70.5q0 37 -12.5 70
t-35 57.5t-54.5 38.5t-71 14t-71 -14t-55 -38.5t-35.5 -57.5t-12.5 -70q0 -38 12.5 -70.5t35.5 -57t55 -38.5t71 -14zM303 -190q-25 0 -42 17t-17 41t17 41.5t42 17.5q24 0 41 -17.5t17 -41.5t-17 -41t-41 -17z" />
    <glyph glyph-name="racute" unicode="&#x155;" horiz-adv-x="366" 
d="M81 500h86v-97q7 24 22 43t34 32t40.5 20t43.5 7q20 0 39 -4v-89q-12 5 -23 6.5t-24 1.5q-24 0 -47.5 -10.5t-42 -31.5t-30.5 -53.5t-12 -76.5v-248h-86v500zM276 750h110l-134 -190h-69z" />
    <glyph glyph-name="rcaron" unicode="&#x159;" horiz-adv-x="366" 
d="M81 500h86v-97q7 24 22 43t34 32t40.5 20t43.5 7q20 0 39 -4v-89q-12 5 -23 6.5t-24 1.5q-24 0 -47.5 -10.5t-42 -31.5t-30.5 -53.5t-12 -76.5v-248h-86v500zM54 677v79l159 -101l159 101v-79l-159 -101z" />
    <glyph glyph-name="uni0157" unicode="&#x157;" horiz-adv-x="366" 
d="M81 500h86v-97q7 24 22 43t34 32t40.5 20t43.5 7q20 0 39 -4v-89q-12 5 -23 6.5t-24 1.5q-24 0 -47.5 -10.5t-42 -31.5t-30.5 -53.5t-12 -76.5v-248h-86v500zM99 -184q-14 8 -23 21.5t-9 30.5q0 24 17 41.5t41 17.5t41 -17.5t17 -41.5q0 -10 -3 -18.5t-8 -16.5l-64 -102
h-45z" />
    <glyph glyph-name="sacute" unicode="&#x15b;" horiz-adv-x="467" 
d="M242 -10q-40 0 -76 10t-63 29.5t-44 48.5t-20 67h88q4 -23 15.5 -38.5t27.5 -25.5t34.5 -14t38.5 -4q41 0 68.5 16.5t27.5 49.5q0 30 -19 49t-64 31l-72 19q-65 17 -97 55t-32 92q0 31 13 56t36 42.5t54.5 27t69.5 9.5q40 0 72 -11t55.5 -30.5t37.5 -45.5t17 -56h-86
q-10 33 -35.5 52t-60.5 19q-36 0 -61 -16.5t-25 -45.5q0 -28 18 -44.5t58 -27.5l80 -21q63 -16 95.5 -53.5t32.5 -94.5q0 -37 -14 -64.5t-39 -45.5t-58.5 -26.5t-72.5 -8.5zM302 750h110l-134 -190h-69z" />
    <glyph glyph-name="scaron" unicode="&#x161;" horiz-adv-x="467" 
d="M242 -10q-40 0 -76 10t-63 29.5t-44 48.5t-20 67h88q4 -23 15.5 -38.5t27.5 -25.5t34.5 -14t38.5 -4q41 0 68.5 16.5t27.5 49.5q0 30 -19 49t-64 31l-72 19q-65 17 -97 55t-32 92q0 31 13 56t36 42.5t54.5 27t69.5 9.5q40 0 72 -11t55.5 -30.5t37.5 -45.5t17 -56h-86
q-10 33 -35.5 52t-60.5 19q-36 0 -61 -16.5t-25 -45.5q0 -28 18 -44.5t58 -27.5l80 -21q63 -16 95.5 -53.5t32.5 -94.5q0 -37 -14 -64.5t-39 -45.5t-58.5 -26.5t-72.5 -8.5zM80 677v79l159 -101l159 101v-79l-159 -101z" />
    <glyph glyph-name="scedilla" unicode="&#x15f;" horiz-adv-x="467" 
d="M242 -10q-40 0 -76 10t-63 29.5t-44 48.5t-20 67h88q4 -23 15.5 -38.5t27.5 -25.5t34.5 -14t38.5 -4q41 0 68.5 16.5t27.5 49.5q0 30 -19 49t-64 31l-72 19q-65 17 -97 55t-32 92q0 31 13 56t36 42.5t54.5 27t69.5 9.5q40 0 72 -11t55.5 -30.5t37.5 -45.5t17 -56h-86
q-10 33 -35.5 52t-60.5 19q-36 0 -61 -16.5t-25 -45.5q0 -28 18 -44.5t58 -27.5l80 -21q63 -16 95.5 -53.5t32.5 -94.5q0 -37 -14 -64.5t-39 -45.5t-58.5 -26.5t-72.5 -8.5zM131 -149q16 -9 37 -13t39 -4q26 0 47 9.5t21 31.5q0 30 -47 30q-22 0 -44 -10l-33 21l53 87h54
l-34 -56q17 7 40 7q35 0 58 -20t23 -56q0 -22 -10.5 -40t-28 -30.5t-41 -19.5t-50.5 -7q-19 0 -41.5 2.5t-42.5 12.5v55z" />
    <glyph glyph-name="scircumflex" unicode="&#x15d;" horiz-adv-x="467" 
d="M242 -10q-40 0 -76 10t-63 29.5t-44 48.5t-20 67h88q4 -23 15.5 -38.5t27.5 -25.5t34.5 -14t38.5 -4q41 0 68.5 16.5t27.5 49.5q0 30 -19 49t-64 31l-72 19q-65 17 -97 55t-32 92q0 31 13 56t36 42.5t54.5 27t69.5 9.5q40 0 72 -11t55.5 -30.5t37.5 -45.5t17 -56h-86
q-10 33 -35.5 52t-60.5 19q-36 0 -61 -16.5t-25 -45.5q0 -28 18 -44.5t58 -27.5l80 -21q63 -16 95.5 -53.5t32.5 -94.5q0 -37 -14 -64.5t-39 -45.5t-58.5 -26.5t-72.5 -8.5zM398 655v-79l-159 101l-159 -101v79l159 101z" />
    <glyph glyph-name="uni0219" unicode="&#x219;" horiz-adv-x="467" 
d="M242 -10q-40 0 -76 10t-63 29.5t-44 48.5t-20 67h88q4 -23 15.5 -38.5t27.5 -25.5t34.5 -14t38.5 -4q41 0 68.5 16.5t27.5 49.5q0 30 -19 49t-64 31l-72 19q-65 17 -97 55t-32 92q0 31 13 56t36 42.5t54.5 27t69.5 9.5q40 0 72 -11t55.5 -30.5t37.5 -45.5t17 -56h-86
q-10 33 -35.5 52t-60.5 19q-36 0 -61 -16.5t-25 -45.5q0 -28 18 -44.5t58 -27.5l80 -21q63 -16 95.5 -53.5t32.5 -94.5q0 -37 -14 -64.5t-39 -45.5t-58.5 -26.5t-72.5 -8.5zM210 -184q-14 8 -23 21.5t-9 30.5q0 24 17 41.5t41 17.5t41 -17.5t17 -41.5q0 -10 -3 -18.5
t-8 -16.5l-64 -102h-45z" />
    <glyph glyph-name="tcaron" unicode="&#x165;" horiz-adv-x="381" 
d="M275 -5q-33 0 -61 9.5t-48.5 28t-32 47.5t-11.5 68v273h-106v79h106v139h86v-139h144v-79h-144v-262q0 -48 21 -66.5t62 -18.5q16 0 32.5 2.5t28.5 7.5v-77q-16 -5 -35 -8.5t-42 -3.5zM267 710h86l-50 -165h-60z" />
    <glyph glyph-name="uni0163" unicode="&#x163;" horiz-adv-x="381" 
d="M275 -5q-33 0 -61 9.5t-48.5 28t-32 47.5t-11.5 68v273h-106v79h106v139h86v-139h144v-79h-144v-262q0 -48 21 -66.5t62 -18.5q16 0 32.5 2.5t28.5 7.5v-77q-16 -5 -35 -8.5t-42 -3.5zM214 -184q-14 8 -23 21.5t-9 30.5q0 24 17 41.5t41 17.5t41 -17.5t17 -41.5
q0 -10 -3 -18.5t-8 -16.5l-64 -102h-45z" />
    <glyph glyph-name="uni021B" unicode="&#x21b;" horiz-adv-x="381" 
d="M275 -5q-33 0 -61 9.5t-48.5 28t-32 47.5t-11.5 68v273h-106v79h106v139h86v-139h144v-79h-144v-262q0 -48 21 -66.5t62 -18.5q16 0 32.5 2.5t28.5 7.5v-77q-16 -5 -35 -8.5t-42 -3.5zM214 -184q-14 8 -23 21.5t-9 30.5q0 24 17 41.5t41 17.5t41 -17.5t17 -41.5
q0 -10 -3 -18.5t-8 -16.5l-64 -102h-45z" />
    <glyph glyph-name="ubreve" unicode="&#x16d;" horiz-adv-x="579" 
d="M258 -10q-41 0 -75 14.5t-58 40.5t-37.5 63.5t-13.5 84.5v307h86v-294q0 -63 30.5 -100t82.5 -37q29 0 54.5 12.5t44 36t29.5 57.5t11 77v248h86v-500h-86v77q-25 -44 -65.5 -65.5t-88.5 -21.5zM285 578q-33 0 -62 11t-50.5 32t-34 50.5t-12.5 65.5v13h58v-13
q0 -50 29.5 -75.5t71.5 -25.5t71.5 25.5t29.5 75.5v13h58v-13q0 -36 -12.5 -65.5t-34 -50.5t-50.5 -32t-62 -11z" />
    <glyph glyph-name="uhungarumlaut" unicode="&#x171;" horiz-adv-x="579" 
d="M258 -10q-41 0 -75 14.5t-58 40.5t-37.5 63.5t-13.5 84.5v307h86v-294q0 -63 30.5 -100t82.5 -37q29 0 54.5 12.5t44 36t29.5 57.5t11 77v248h86v-500h-86v77q-25 -44 -65.5 -65.5t-88.5 -21.5zM406 750h99l-109 -190h-59zM239 750h99l-109 -190h-59z" />
    <glyph glyph-name="umacron" unicode="&#x16b;" horiz-adv-x="579" 
d="M258 -10q-41 0 -75 14.5t-58 40.5t-37.5 63.5t-13.5 84.5v307h86v-294q0 -63 30.5 -100t82.5 -37q29 0 54.5 12.5t44 36t29.5 57.5t11 77v248h86v-500h-86v77q-25 -44 -65.5 -65.5t-88.5 -21.5zM124 710h322v-69h-322v69z" />
    <glyph glyph-name="uogonek" unicode="&#x173;" horiz-adv-x="579" 
d="M258 -10q-41 0 -75 14.5t-58 40.5t-37.5 63.5t-13.5 84.5v307h86v-294q0 -63 30.5 -100t82.5 -37q29 0 54.5 12.5t44 36t29.5 57.5t11 77v248h86v-500h-86v77q-25 -44 -65.5 -65.5t-88.5 -21.5zM420 -219q-40 0 -67 24.5t-27 62.5q0 24 8 44t21 35.5t27.5 28.5t28.5 24
h86q-48 -30 -70.5 -60t-22.5 -55q0 -20 11.5 -28.5t26.5 -8.5q18 0 31 7t24 15v-63q-12 -11 -31.5 -18.5t-45.5 -7.5z" />
    <glyph glyph-name="uring" unicode="&#x16f;" horiz-adv-x="579" 
d="M258 -10q-41 0 -75 14.5t-58 40.5t-37.5 63.5t-13.5 84.5v307h86v-294q0 -63 30.5 -100t82.5 -37q29 0 54.5 12.5t44 36t29.5 57.5t11 77v248h86v-500h-86v77q-25 -44 -65.5 -65.5t-88.5 -21.5zM285 543q-25 0 -47 9.5t-38.5 26t-26 38t-9.5 46.5t9.5 46.5t26 38t38.5 26
t47 9.5t47 -9.5t38.5 -26t26.5 -38t10 -46.5t-10 -46.5t-26.5 -38t-38.5 -26t-47 -9.5zM285 594q29 0 50 20t21 49t-21 49.5t-50 20.5t-49 -20.5t-20 -49.5t20 -49t49 -20z" />
    <glyph glyph-name="utilde" unicode="&#x169;" horiz-adv-x="579" 
d="M258 -10q-41 0 -75 14.5t-58 40.5t-37.5 63.5t-13.5 84.5v307h86v-294q0 -63 30.5 -100t82.5 -37q29 0 54.5 12.5t44 36t29.5 57.5t11 77v248h86v-500h-86v77q-25 -44 -65.5 -65.5t-88.5 -21.5zM114 611q8 43 37 69t69 26q20 0 38 -7t34.5 -15t30.5 -15t26 -7q33 0 43 44
h66l-3 -18q-8 -43 -37 -69t-69 -26q-20 0 -38 7t-34.5 15t-30.5 15t-26 7q-33 0 -43 -44h-66z" />
    <glyph glyph-name="uni1EE5" unicode="&#x1ee5;" horiz-adv-x="579" 
d="M258 -10q-41 0 -75 14.5t-58 40.5t-37.5 63.5t-13.5 84.5v307h86v-294q0 -63 30.5 -100t82.5 -37q29 0 54.5 12.5t44 36t29.5 57.5t11 77v248h86v-500h-86v77q-25 -44 -65.5 -65.5t-88.5 -21.5zM286 -190q-25 0 -42 17t-17 41t17 41.5t42 17.5q24 0 41 -17.5t17 -41.5
t-17 -41t-41 -17z" />
    <glyph glyph-name="wacute" unicode="&#x1e83;" horiz-adv-x="763" 
d="M381 359l-123 -359h-76l-170 500h90l121 -365l125 365h66l125 -365l121 365h91l-170 -500h-76zM444 750h110l-134 -190h-69z" />
    <glyph glyph-name="wcircumflex" unicode="&#x175;" horiz-adv-x="763" 
d="M381 359l-123 -359h-76l-170 500h90l121 -365l125 365h66l125 -365l121 365h91l-170 -500h-76zM540 655v-79l-159 101l-159 -101v79l159 101z" />
    <glyph glyph-name="wdieresis" unicode="&#x1e85;" horiz-adv-x="763" 
d="M381 359l-123 -359h-76l-170 500h90l121 -365l125 365h66l125 -365l121 365h91l-170 -500h-76zM269 596q-25 0 -42 17t-17 41t17 41.5t42 17.5q24 0 41 -17.5t17 -41.5t-17 -41t-41 -17zM494 596q-24 0 -41.5 17t-17.5 41t17.5 41.5t41.5 17.5t41 -17.5t17 -41.5t-17 -41
t-41 -17z" />
    <glyph glyph-name="wgrave" unicode="&#x1e81;" horiz-adv-x="763" 
d="M381 359l-123 -359h-76l-170 500h90l121 -365l125 365h66l125 -365l121 365h91l-170 -500h-76zM209 750h110l94 -190h-70z" />
    <glyph glyph-name="ycircumflex" unicode="&#x177;" horiz-adv-x="547" 
d="M118 -209l109 235l-219 474h95l172 -380l171 380h96l-328 -709h-96zM434 655v-79l-159 101l-159 -101v79l159 101z" />
    <glyph glyph-name="ygrave" unicode="&#x1ef3;" horiz-adv-x="547" 
d="M118 -209l109 235l-219 474h95l172 -380l171 380h96l-328 -709h-96zM103 750h110l94 -190h-70z" />
    <glyph glyph-name="uni0233" unicode="&#x233;" horiz-adv-x="547" 
d="M118 -209l109 235l-219 474h95l172 -380l171 380h96l-328 -709h-96zM114 710h322v-69h-322v69z" />
    <glyph glyph-name="zacute" unicode="&#x17a;" horiz-adv-x="484" 
d="M40 68l286 353h-282v79h393v-69l-286 -352h295v-79h-406v68zM303 750h110l-134 -190h-69z" />
    <glyph glyph-name="zcaron" unicode="&#x17e;" horiz-adv-x="484" 
d="M40 68l286 353h-282v79h393v-69l-286 -352h295v-79h-406v68zM81 677v79l159 -101l159 101v-79l-159 -101z" />
    <glyph glyph-name="zdotaccent" unicode="&#x17c;" horiz-adv-x="484" 
d="M40 68l286 353h-282v79h393v-69l-286 -352h295v-79h-406v68zM240 596q-25 0 -42 17t-17 41t17 41.5t42 17.5q24 0 41 -17.5t17 -41.5t-17 -41t-41 -17z" />
    <glyph glyph-name="ellipsis" unicode="&#x2026;" horiz-adv-x="721" 
d="M360 -8q-31 0 -52.5 22t-21.5 53q0 30 21.5 52.5t52.5 22.5t52.5 -22.5t21.5 -52.5q0 -31 -21.5 -53t-52.5 -22zM601 -8q-31 0 -52.5 22t-21.5 53q0 30 21.5 52.5t52.5 22.5t52.5 -22.5t21.5 -52.5q0 -31 -21.5 -53t-52.5 -22zM121 -8q-31 0 -52.5 22t-21.5 53
q0 30 21.5 52.5t52.5 22.5t52.5 -22.5t21.5 -52.5q0 -31 -21.5 -53t-52.5 -22z" />
    <glyph glyph-name="endash" unicode="&#x2013;" horiz-adv-x="565" 
d="M65 323h434v-86h-434v86z" />
    <glyph glyph-name="emdash" unicode="&#x2014;" horiz-adv-x="635" 
d="M65 323h505v-86h-505v86z" />
    <glyph glyph-name="guilsinglleft" unicode="&#x2039;" horiz-adv-x="304" 
d="M184 467h73l-116 -217l116 -217h-73l-141 217z" />
    <glyph glyph-name="guilsinglright" unicode="&#x203a;" horiz-adv-x="304" 
d="M261 250l-141 -217h-73l116 217l-116 217h73z" />
    <glyph glyph-name="quoteleft" unicode="&#x2018;" horiz-adv-x="251" 
d="M158 710h57l-67 -143q17 -9 29 -26.5t12 -40.5q0 -30 -21.5 -52.5t-52.5 -22.5q-32 0 -53 22.5t-21 52.5q0 24 13 45z" />
    <glyph glyph-name="quoteright" unicode="&#x2019;" horiz-adv-x="254" 
d="M106 437h-58l67 143q-17 9 -29 27t-12 40q0 31 21.5 53t53.5 22q31 0 52.5 -22t21.5 -53q0 -12 -4 -23.5t-10 -21.5z" />
    <glyph glyph-name="quotedblleft" unicode="&#x201c;" horiz-adv-x="436" 
d="M158 710h57l-67 -143q17 -9 29 -26.5t12 -40.5q0 -30 -21.5 -52.5t-52.5 -22.5q-32 0 -53 22.5t-21 52.5q0 24 13 45zM344 710h57l-67 -143q17 -9 29 -26.5t12 -40.5q0 -30 -21.5 -52.5t-52.5 -22.5q-32 0 -53 22.5t-21 52.5q0 24 13 45z" />
    <glyph glyph-name="quotedblright" unicode="&#x201d;" horiz-adv-x="440" 
d="M106 437h-58l67 143q-17 9 -29 27t-12 40q0 31 21.5 53t53.5 22q31 0 52.5 -22t21.5 -53q0 -12 -4 -23.5t-10 -21.5zM292 437h-58l67 143q-17 9 -29 27t-12 40q0 31 21.5 53t53.5 22q31 0 52.5 -22t21.5 -53q0 -12 -4 -23.5t-10 -21.5z" />
    <glyph glyph-name="quotesinglbase" unicode="&#x201a;" horiz-adv-x="256" 
d="M85 -143h-57l67 143q-18 9 -29.5 26.5t-11.5 40.5q0 30 21.5 52.5t52.5 22.5t52.5 -22.5t21.5 -52.5q0 -13 -4 -24t-10 -21z" />
    <glyph glyph-name="quotedblbase" unicode="&#x201e;" horiz-adv-x="442" 
d="M85 -143h-57l67 143q-18 9 -29.5 26.5t-11.5 40.5q0 30 21.5 52.5t52.5 22.5t52.5 -22.5t21.5 -52.5q0 -13 -4 -24t-10 -21zM271 -143h-57l67 143q-18 9 -29.5 26.5t-11.5 40.5q0 30 21.5 52.5t52.5 22.5t52.5 -22.5t21.5 -52.5q0 -13 -4 -24t-10 -21z" />
    <glyph glyph-name="bullet" unicode="&#x2022;" horiz-adv-x="419" 
d="M209 166q-28 0 -52.5 10.5t-43 29t-29.5 43.5t-11 53t11 53t29.5 43.5t43 29t52.5 10.5t53 -10.5t43.5 -29t29.5 -43.5t11 -53t-11 -53t-29.5 -43.5t-43.5 -29t-53 -10.5z" />
    <glyph glyph-name="minus" unicode="&#x2212;" horiz-adv-x="558" 
d="M68 328h423v-77h-423v77z" />
    <glyph glyph-name="Euro" unicode="&#x20ac;" horiz-adv-x="894" 
d="M33 404l26 55h100q16 58 49.5 106.5t79.5 83.5t103.5 54t121.5 19q57 0 109.5 -15.5t96 -44.5t77 -70t54.5 -92h-95q-35 64 -98 101t-144 37q-48 0 -89.5 -13t-75.5 -36.5t-59 -56.5t-40 -73h420l-25 -55h-409q-2 -12 -3 -24t-1 -25q0 -25 3 -47h364l-24 -54h-327
q29 -82 99 -132t167 -50q81 0 144 37t98 101h95q-21 -51 -54.5 -92t-77 -70t-96 -44.5t-109.5 -15.5q-65 0 -122 19.5t-103.5 54.5t-80 84t-49.5 108h-125l26 54h88q-2 11 -2 23v24q0 25 3 49h-115z" />
    <glyph glyph-name="uniFB01" unicode="&#xfb01;" horiz-adv-x="615" 
d="M123 421h-106v79h106v101q0 39 11.5 68t32 48.5t48.5 29t61 9.5q23 0 42 -3.5t36 -9.5v-76q-12 5 -29.5 7.5t-32.5 2.5q-42 0 -62.5 -18.5t-20.5 -66.5v-92h145v-79h-145v-421h-86v421zM492 634q-26 0 -44 17.5t-18 43.5q0 25 18 43t44 18t43 -18t17 -43q0 -26 -17 -43.5
t-43 -17.5zM448 500h86v-500h-86v500z" />
    <glyph glyph-name="uniFB02" unicode="&#xfb02;" horiz-adv-x="615" 
d="M123 421h-106v79h106v101q0 39 11.5 68t32 48.5t48.5 29t61 9.5q23 0 42 -3.5t36 -9.5v-76q-12 5 -29.5 7.5t-32.5 2.5q-42 0 -62.5 -18.5t-20.5 -66.5v-92h145v-79h-145v-421h-86v421zM448 750h86v-750h-86v750z" />
    <glyph glyph-name="glyph328" 
d="M0 634q-26 0 -44 17.5t-18 43.5q0 25 18 43t44 18t43 -18t17 -43q0 -26 -17 -43.5t-43 -17.5z" />
    <glyph glyph-name="breve" unicode="&#x2d8;" 
d="M0 578q-33 0 -62 11t-50.5 32t-34 50.5t-12.5 65.5v13h58v-13q0 -50 29.5 -75.5t71.5 -25.5t71.5 25.5t29.5 75.5v13h58v-13q0 -36 -12.5 -65.5t-34 -50.5t-50.5 -32t-62 -11z" />
    <glyph glyph-name="caron" unicode="&#x2c7;" 
d="M-159 677v79l159 -101l159 101v-79l-159 -101z" />
    <glyph glyph-name="circumflex" unicode="&#x2c6;" 
d="M159 655v-79l-159 101l-159 -101v79l159 101z" />
    <glyph glyph-name="dotaccent" unicode="&#x2d9;" 
d="M0 596q-25 0 -42 17t-17 41t17 41.5t42 17.5q24 0 41 -17.5t17 -41.5t-17 -41t-41 -17z" />
    <glyph glyph-name="glyph333" 
d="M0 -58q-25 0 -42 17t-17 41t17 41.5t42 17.5q24 0 41 -17.5t17 -41.5t-17 -41t-41 -17z" />
    <glyph glyph-name="glyph334" 
d="M0 -190q-25 0 -42 17t-17 41t17 41.5t42 17.5q24 0 41 -17.5t17 -41.5t-17 -41t-41 -17z" />
    <glyph glyph-name="hungarumlaut" unicode="&#x2dd;" 
d="M68 750h99l-109 -190h-59zM-99 750h99l-109 -190h-59z" />
    <glyph glyph-name="glyph336" 
d="M-26 -184q-14 8 -23 21.5t-9 30.5q0 24 17 41.5t41 17.5t41 -17.5t17 -41.5q0 -10 -3 -18.5t-8 -16.5l-64 -102h-45z" />
    <glyph glyph-name="ogonek" unicode="&#x2db;" 
d="M8 -219q-40 0 -67 24.5t-27 62.5q0 24 8 44t21 35.5t27.5 28.5t28.5 24h86q-48 -30 -70.5 -60t-22.5 -55q0 -20 11.5 -28.5t26.5 -8.5q18 0 31 7t24 15v-63q-12 -11 -31.5 -18.5t-45.5 -7.5z" />
    <glyph glyph-name="ring" unicode="&#x2da;" 
d="M0 543q-25 0 -47 9.5t-38.5 26t-26 38t-9.5 46.5t9.5 46.5t26 38t38.5 26t47 9.5t47 -9.5t38.5 -26t26.5 -38t10 -46.5t-10 -46.5t-26.5 -38t-38.5 -26t-47 -9.5zM0 594q29 0 50 20t21 49t-21 49.5t-50 20.5t-49 -20.5t-20 -49.5t20 -49t49 -20z" />
    <glyph glyph-name="tilde" unicode="&#x2dc;" 
d="M-171 611q8 43 37 69t69 26q20 0 38 -7t34.5 -15t30.5 -15t26 -7q33 0 43 44h66l-3 -18q-8 -43 -37 -69t-69 -26q-20 0 -38 7t-34.5 15t-30.5 15t-26 7q-33 0 -43 -44h-66z" />
    <glyph glyph-name="glyph340" 
d="M-31 710h86l-50 -165h-60z" />
    <glyph glyph-name="glyph341" 
d="M0 596q-24 0 -41 17.5t-17 41.5q0 9 3 18t8 16l64 103h45l-36 -85q14 -8 23 -21.5t9 -30.5q0 -24 -17 -41.5t-41 -17.5z" />
    <glyph glyph-name="glyph342" 
d="M-98 596q-26 0 -43.5 17.5t-17.5 43.5q0 25 17.5 42.5t43.5 17.5q25 0 43 -17.5t18 -42.5q0 -26 -18 -43.5t-43 -17.5zM98 596q-26 0 -43.5 17.5t-17.5 43.5q0 25 17.5 42.5t43.5 17.5q25 0 43 -17.5t18 -42.5q0 -26 -18 -43.5t-43 -17.5z" />
    <glyph glyph-name="glyph343" 
d="M-215 -10l-40 40l471 480l39 -39z" />
    <glyph glyph-name="glyph344" 
d="M-161 577v68h323v-68h-323z" />
    <glyph glyph-name="glyph345" 
d="M-161 577v68h323v-68h-323z" />
    <glyph glyph-name="glyph346" 
d="M-122 254v78l244 156v-77z" />
    <glyph glyph-name="glyph347" 
d="M-15 927h108l-114 -157h-72z" />
    <glyph glyph-name="glyph348" 
d="M0 759q-33 0 -62 11t-50.5 31.5t-34 50t-12.5 65.5h58q0 -49 29.5 -75t71.5 -26t71.5 26t29.5 75h58q0 -36 -12.5 -65.5t-34 -50t-50.5 -31.5t-62 -11z" />
    <glyph glyph-name="glyph349" 
d="M-166 855v77l166 -87l166 87v-77l-166 -87z" />
    <glyph glyph-name="glyph350" 
d="M-107 -149q16 -9 37 -13t39 -4q27 0 47.5 9.5t20.5 31.5q0 30 -46 30q-22 0 -45 -10l-32 21l52 87h55l-34 -56q17 7 40 7q35 0 57.5 -20t22.5 -56q0 -22 -10 -40t-27.5 -30.5t-41 -19.5t-50.5 -7q-20 0 -42 2.5t-43 12.5v55z" />
    <glyph glyph-name="glyph351" 
d="M-166 845l166 87l166 -87v-77l-166 87l-166 -87v77z" />
    <glyph glyph-name="glyph352" 
d="M-112 785q-25 0 -42 17t-17 41t17 41.5t42 17.5q24 0 41 -17.5t17 -41.5t-17 -41t-41 -17zM113 785q-24 0 -41.5 17t-17.5 41t17.5 41.5t41.5 17.5t41 -17.5t17 -41.5t-17 -41t-41 -17z" />
    <glyph glyph-name="glyph353" 
d="M0 785q-25 0 -42 17t-17 41t17 41.5t42 17.5q24 0 41 -17.5t17 -41.5t-17 -41t-41 -17z" />
    <glyph glyph-name="glyph354" 
d="M0 -58q-25 0 -42 17t-17 41t17 41.5t42 17.5q24 0 41 -17.5t17 -41.5t-17 -41t-41 -17z" />
    <glyph glyph-name="glyph355" 
d="M0 -190q-25 0 -42 17t-17 41t17 41.5t42 17.5q24 0 41 -17.5t17 -41.5t-17 -41t-41 -17z" />
    <glyph glyph-name="glyph356" 
d="M-26 -184q-14 8 -23 21.5t-9 30.5q0 24 17 41.5t41 17.5t41 -17.5t17 -41.5q0 -10 -3 -18.5t-8 -16.5l-64 -102h-45z" />
    <glyph glyph-name="glyph357" 
d="M21 770l-114 157h108l78 -157h-72z" />
    <glyph glyph-name="glyph358" 
d="M68 927h99l-109 -157h-59zM-99 927h99l-109 -157h-59z" />
    <glyph glyph-name="glyph359" 
d="M-161 874h322v-69h-322v69z" />
    <glyph glyph-name="glyph360" 
d="M7 -219q-40 0 -67.5 25t-27.5 64q0 22 8 41.5t20 35.5t26.5 29t28.5 24h93q-49 -30 -70.5 -59.5t-21.5 -52.5q0 -17 11 -25t25 -8q18 0 31.5 6.5t24.5 15.5v-70q-13 -11 -32.5 -18.5t-48.5 -7.5z" />
    <glyph glyph-name="glyph361" 
d="M0 753q-25 0 -47 9.5t-38.5 26t-26 38t-9.5 46.5t9.5 46.5t26 38t38.5 26t47 9.5t47 -9.5t38.5 -26t26.5 -38t10 -46.5t-10 -46.5t-26.5 -38t-38.5 -26t-47 -9.5zM0 804q29 0 50 20t21 49t-21 49.5t-50 20.5t-49 -20.5t-20 -49.5t20 -49t49 -20z" />
    <glyph glyph-name="glyph362" 
d="M-170 804q8 43 37 69t69 26q19 0 37.5 -7t34.5 -15t30.5 -15t26.5 -7q33 0 43 44h66l-4 -19q-8 -42 -36.5 -68t-69.5 -26q-20 0 -38 7t-34 15l-30 15t-26 7q-32 0 -44 -44h-65z" />
    <glyph glyph-name="glyph363" 
d="M-163 401h326v-82h-326v82z" />
    <glyph glyph-name="glyph364" 
d="M-283 -20l-56 52l623 698l55 -51z" />
    <glyph glyph-name="glyph365" 
d="M-163 213v84l325 210v-84z" />
    <glyph glyph-name="glyph366" 
d="M-361 605h721v-72h-721v72z" />
    </font>
</defs>
</svg>
